Поиск

1977 (1992) Ron Carter, Herbie Hancock & Tony Williams - Third Plane

1977 (1992) Ron Carter, Herbie Hancock & Tony Williams - Third Plane
Страна-производитель диска (релиза):
USA
Дата издания диска:
13 июля 1977
Дата переиздания диска:
1992
Издатель (лейбл):
Номер по каталогу:
M-9105 / OJC20 754-2
Носитель:
CD
Битрейт аудио:
lossless
Аудиокодек:
FLAC (*.flac)
Тип рипа:
tracks
Время звучания:
39:48
Наличие сканов:
  • да
Релизёр (источник):
AlexMachen
Треклист:

01 - Third Plane (5:55)
02 - Quiet Times (7:54)
03 - Lawra (6:10)
04 - Stella By Starlight (8:28)
05 - United Blues (3:02)
06 - Dolphin Dance (8:21)

Доп. информация: 24 битный ремастер

Состав:
  • Ron Carter Bass, Composer, Producer
  • Fred Catero Engineer
  • Herbie Hancock Bass, Composer, Piano
  • Tony Williams Composer, Drums
  • Fred Catero Engineer
EAC extraction logfile from 19. February 2006, 12:00 for CD
Ron Carter, Herbie Hancock & Tony Williams / Third Plane
Used drive : PLEXTOR DVDR PX-716A Adapter: 1 ID: 0
Read mode : Secure with NO C2, accurate stream, disable cache
Read offset correction : 30
Overread into Lead-In and Lead-Out : Yes
Used output format : Internal WAV Routines
44.100 Hz; 16 Bit; Stereo
Other options :
Fill up missing offset samples with silence : Yes
Delete leading and trailing silent blocks : No
Installed external ASPI interface
Track 1
Filename F:\[MyRip]\01 - Third Plane.wav
Pre-gap length 0:00:02.00
Peak level 88.1 %
Track quality 100.0 %
Test CRC DFAD4E01
Copy CRC DFAD4E01
Copy OK
Track 2
Filename F:\[MyRip]\02 - Quiet Times.wav
Pre-gap length 0:00:02.00
Peak level 80.9 %
Track quality 100.0 %
Test CRC 097FE5D3
Copy CRC 097FE5D3
Copy OK
Track 3
Filename F:\[MyRip]\03 - Lawra.wav
Pre-gap length 0:00:02.00
Peak level 86.7 %
Track quality 99.9 %
Test CRC 98C57995
Copy CRC 98C57995
Copy OK
Track 4
Filename F:\[MyRip]\04 - Stella By Starlight.wav
Pre-gap length 0:00:02.00
Peak level 84.5 %
Track quality 100.0 %
Test CRC 47F36DDA
Copy CRC 47F36DDA
Copy OK
Track 5
Filename F:\[MyRip]\05 - United Blues.wav
Pre-gap length 0:00:02.00
Peak level 84.7 %
Track quality 100.0 %
Test CRC 4AF67D9E
Copy CRC 4AF67D9E
Copy OK
Track 6
Filename F:\[MyRip]\06 - Dolphin Dance.wav
Pre-gap length 0:00:01.00
Peak level 84.5 %
Track quality 100.0 %
Test CRC 07D5C35A
Copy CRC 07D5C35A
Copy OK
No errors occured
End of status report
16:45
65
RSS
Нет комментариев. Ваш будет первым!