Поиск

1977 (1991) Art Pepper - Friday Night at the Village Vanguard {Contemporary OJC OJCCD 6952}

1977 (1991) Art Pepper - Friday Night at the Village Vanguard {Contemporary OJC OJCCD 6952}
Страна-производитель диска (релиза):
USA
Дата записи диска:
28-30 июля 1977
Дата издания диска:
1977
Дата переиздания диска:
1991
Издатель (лейбл):
Номер по каталогу:
OJCCD 6952
Носитель:
CD
Битрейт аудио:
lossless
Аудиокодек:
FLAC (*.flac)
Тип рипа:
tracks+.cue
Время звучания:
54:11
Наличие сканов:
  • нет
Релизёр (источник):
johnnyaction
Треклист:

01.Las Cuevas de Mario [11:08]
02.But Beautiful [10:17]
03.Caravan [13:29]
04.Labyrinth [12:10]
05.A Night in Tunisia [5:45]

Состав:
  • Tom Brown    Engineer
  • George Cables    Piano
  • Elvin Jones    Drums
  • Peter Keepnews    Liner Notes
  • Lester Koenig    Producer
  • George Mraz    Bass
  • Ronnie Olsen    Engineer
  • Art Pepper    Composer, Liner Notes, Sax (Alto), Sax (Tenor)

Записано в 

  • Village Vanguard, New York, NY
Exact Audio Copy V0.99 prebeta 5 from 4. May 2009
EAC extraction logfile from 31. October 2009, 10:07
Art Pepper / Friday Night at the Village Vanguard
Used drive : HL-DT-STDVD+-RW GWA4164B Adapter: 0 ID: 0
Read mode : Secure
Utilize accurate stream : Yes
Defeat audio cache : Yes
Make use of C2 pointers : No
Read offset correction : 102
Overread into Lead-In and Lead-Out : Yes
Fill up missing offset samples with silence : Yes
Delete leading and trailing silent blocks : No
Null samples used in CRC calculations : Yes
Used interface : Installed external ASPI interface
Gap handling : Appended to previous track
Used output format : User Defined Encoder
Selected bitrate : 768 kBit/s
Quality : High
Add ID3 tag : No
Command line compressor : C:\Program Files\Exact Audio Copy\FLAC\FLAC.EXE
Additional command line options : -V -8 -T "artist=%a" -T "title=%t" -T "album=%g" -T "date=%y" -T "tracknumber=%n" -T "genre=%m" %s
TOC of the extracted CD Track | Start | Length | Start sector | End sector --------------------------------------------------------- 1 | 0:00.00 | 11:20.30 | 0 | 51029 2 | 11:20.30 | 10:37.30 | 51030 | 98834 3 | 21:57.60 | 13:57.62 | 98835 | 161671 4 | 35:55.47 | 12:18.70 | 161672 | 217091 5 | 48:14.42 | 5:57.23 | 217092 | 243889
Track 1 Filename E:\Pepper, Art\Friday Night at the Village Vanguard [FLAC]\01 - Art Pepper - Friday Night at the Village Vanguard - Las cuevas de Mario.wav Pre-gap length 0:00:02.00 Peak level 100.0 % Track quality 99.9 % Test CRC 5631612E Copy CRC 5631612E Accurately ripped (confidence 2) [2B71BAF2] Copy OK
Track 2 Filename E:\Pepper, Art\Friday Night at the Village Vanguard [FLAC]\02 - Art Pepper - Friday Night at the Village Vanguard - But beautiful.wav Peak level 99.7 % Track quality 100.0 % Test CRC 008F44CB Copy CRC 008F44CB Accurately ripped (confidence 2) [BD632CE7] Copy OK
Track 3 Filename E:\Pepper, Art\Friday Night at the Village Vanguard [FLAC]\03 - Art Pepper - Friday Night at the Village Vanguard - Caravan.wav Pre-gap length 0:00:00.20 Peak level 97.4 % Track quality 100.0 % Test CRC 6D81565A Copy CRC 6D81565A Accurately ripped (confidence 2) [E3084C5E] Copy OK
Track 4 Filename E:\Pepper, Art\Friday Night at the Village Vanguard [FLAC]\04 - Art Pepper - Friday Night at the Village Vanguard - Labyrinth.wav Peak level 100.0 % Track quality 100.0 % Test CRC EDE97E77 Copy CRC EDE97E77 Accurately ripped (confidence 2) [614669C7] Copy OK
Track 5 Filename E:\Pepper, Art\Friday Night at the Village Vanguard [FLAC]\05 - Art Pepper - Friday Night at the Village Vanguard - A night in Tunisia.wav Pre-gap length 0:00:00.73 Peak level 99.9 % Track quality 99.9 % Test CRC 829E94BA Copy CRC 829E94BA Accurately ripped (confidence 2) [685169E1] Copy OK
All tracks accurately ripped
No errors occurred
End of status report
REM GENRE Jazz
REM DATE 1980
REM DISCID 480CB305
REM COMMENT "ExactAudioCopy v0.99pb5"
PERFORMER "Art Pepper"
TITLE "Friday Night at the Village Vanguard"
FILE "01 - Art Pepper - Friday Night at the Village Vanguard - Las cuevas de Mario.wav" WAVE TRACK 01 AUDIO TITLE "Cuevas de Mario"
PERFORMER "Art Pepper" INDEX 01 00:00:00
FILE "02 - Art Pepper - Friday Night at the Village Vanguard - But beautiful.wav" WAVE TRACK 02 AUDIO TITLE " But Beautiful"
PERFORMER "Art Pepper" INDEX 01 00:00:00
FILE "03 - Art Pepper - Friday Night at the Village Vanguard - Caravan.wav" WAVE TRACK 03 AUDIO
TITLE " Caravan"
PERFORMER "Art Pepper" INDEX 00 10:37:15
FILE "04 - Art Pepper - Friday Night at the Village Vanguard - Labyrinth.wav" WAVE TRACK 04 AUDIO
TITLE "Labyrinth"
PERFORMER "Art Pepper" INDEX 01 00:00:00 TRACK 05 AUDIO
TITLE "Night in Tunisia"
PERFORMER "Art Pepper" INDEX 00 12:18:15
FILE "05 - Art Pepper - Friday Night at the Village Vanguard - A night in Tunisia.wav" WAVE INDEX 01 00:00:00
Приватный:
Нет (DHT включён)
Размер:
312.46 Мб (327,636,589 байт) » файлов: 8
Участники:
0 раздают, 0 качают (0 участников всего)
Внешние участники:
3 раздают, 1 качают (4 участников всего) [ Обновить ]
Скорость:
Торрент не зарегистрирован на трекере
17:36
29
RSS
Нет комментариев. Ваш будет первым!