Поиск

1976 (1994) Milt Jackson, Joe Pass, Ray Brown - The Big 3

1976 (1994) Milt Jackson, Joe Pass, Ray Brown - The Big 3
Страна-производитель диска (релиза):
USA
Дата записи диска:
25 августа 1975
Дата издания диска:
1976
Номер по каталогу:
J33J 20021
Носитель:
CD
Битрейт аудио:
lossless
Аудиокодек:
FLAC (*.flac)
Тип рипа:
image+.cue
Время звучания:
44:03
Наличие сканов:
  • да
Треклист:
01. The Pink Panther 5:52
02. Nuages 7:26
03. Blue Bossa 5:03
04. Come Sunday 3:12
05. Wave 6:50
06. Moonglow 4:57
07. You Stepped Out of a Dream 3:58
08. Blues for Sammy 6:25
Состав:
  • Milt Jackson — vibraphone
  • Joe Pass — guitar
  • Ray Brown — bass
  • Norman Granz — producer
  • Gribbitt! — design
  • Phil Stern — photography, design
  • Benny Green — liner notes
  • Angel Balestier — Engineer
Лог создания рипа
Отчёт EAC об извлечении, выполненном 4. июля 2007, 3:58 для диска:
Jackson, Milt & Pass, Joe & Brown, Ray / The Big 3
Дисковод: Optiarc DVD RW AD-7173A Adapter: 0 ID: 0
Режим чтения: Достоверный (C2: нет, Точный поток: да, Отключение кэша: да)
Коррекция смещения при чтении: 48
Способность читать области Lead-in и Lead-out : Нет
Выходной формат: Внутренние WAV-операции
44.100 Гц; 16 бит; стерео
Другие параметры:
Заполнение пропущенных сэмплов тишиной : Да
Удаление блоков с тишиной в начале и конце : Нет
Установленный внешний ASPI-интерфейс
Характеристики диапазона извлечения и сообщения об ошибках
Выбранный диапазон
Имя файла C:\Jackson, Milt\Jackson, Milt & Pass, Joe & Brown, Ray - The Big 3\Jackson, Milt & Pass, Joe & Brown, Ray - The Big 3.wav
Пиковый уровень 75.3 %
Качество диапазона 100.0 %
CRC BA8FA32C
Копирование... OK
Ошибок не произошло
Конец отчёта
Содержание индексной карты (.CUE)
REM GENRE Jazz
REM DATE 1976
REM DISCID 5A0A5308
PERFORMER "Milt Jackson, Joe Pass, Ray Brown"
TITLE "The Big 3"
FILE "Jackson, Milt & Pass, Joe & Brown, Ray - The Big 3.wav" WAVE TRACK 01 AUDIO TITLE "The Pink Panther" INDEX 01 00:00:00 TRACK 02 AUDIO TITLE "Nuages" INDEX 00 05:54:73 INDEX 01 05:57:45 TRACK 03 AUDIO TITLE "Blue Bossa" INDEX 00 13:25:60 INDEX 01 13:26:33 TRACK 04 AUDIO TITLE "Come Sunday" INDEX 00 18:30:45 INDEX 01 18:32:40 TRACK 05 AUDIO TITLE "Wave" INDEX 00 21:47:00 INDEX 01 21:49:30 TRACK 06 AUDIO TITLE "Moonglow" INDEX 00 28:39:63 INDEX 01 28:42:53 TRACK 07 AUDIO TITLE "You Stepped Out of a Dream" INDEX 00 33:36:18 INDEX 01 33:36:63 TRACK 08 AUDIO TITLE "Blues for Sammy" INDEX 00 37:35:15 INDEX 01 37:36:43
Приватный:
Нет (DHT включён)
Размер:
201.53 Мб (211,320,533 байт) » файлов: 7
Участники:
0 раздают, 0 качают (0 участников всего)
Внешние участники:
3 раздают, 1 качают (4 участников всего) [ Обновить ]
00:28
68
RSS
Нет комментариев. Ваш будет первым!