Поиск

1975 (1991) John Coltrane - The Gentle Side Of John Coltrane {GRP GRD107}

1975 (1991) John Coltrane - The Gentle Side Of John Coltrane {GRP GRD107}
Страна-производитель диска (релиза):
USA
Дата издания диска:
1975
Дата переиздания диска:
15 октября 1991
Издатель (лейбл):
Номер по каталогу:
GRD107
Носитель:
CD
Битрейт аудио:
lossless
Аудиокодек:
FLAC (*.flac)
Тип рипа:
image+.cue
Время звучания:
67:10
Наличие сканов:
  • нет
Релизёр (источник):
Borisello
Треклист:

01. Soul Eyes 05:27
02. What's New 03:47
03. Welcome 05:34
04. Nancy (With The Laughing Face) 03:19
05. My Little Brown Book 05:20
06. Wise One 09:08
07. Lush Life 05:31
08. Alabama 02:29
09. My One And Only Love 04:58
10. After The Rain 04:15
11. In A Sentimental Mood 04:17
12. Dear Lord 05:43
13. I Want To Talk About You 08:19

Состав:
  • Aaron Bell Bass
  • Alice Coltrane Producer
  • John Coltrane Composer, Producer, Sax (Soprano), Sax (Tenor)
  • Michael Cuscuna Liner Notes, Producer
  • Eric Dolphy Clarinet (Bass)
  • Duke Ellington Composer, Piano
  • Jimmy Garrison Bass
  • Dave Grusin Executive Producer
  • Johnny Hartman Vocals
  • Roy Haynes Drums
  • Elvin Jones Drums
  • Ed Michel Producer
  • Larry Rosen Executive Producer
  • Bob Thiele Producer
  • McCoy Tyner Piano
  • Rudy Van Gelder Engineer
  • Sam Woodward Drums
  • Reggie Workman Bass
Лог создания рипа
Exact Audio Copy V0.99 prebeta 1 from 25. May 2007

Отчёт EAC об извлечении, выполненном 11. марта 2008, 16:23

John Coltrane / The Gentle Side Of John Coltrane

Дисковод: PIONEER DVD-RW DVR-112 Adapter: 1 ID: 0

Режим чтения : Достоверность
Использование точного потока : Да
Отключение кэша аудио : Да
Использование указателей C2 : Нет

Коррекция смещения при чтении : 48
Способность читать области Lead-in и Lead-out : Нет
Заполнение пропущенных сэмплов тишиной : Да
Удаление блоков с тишиной в начале и конце : Нет
Интерфейс : Установленный внешний ASPI-интерфейс

Выходной формат : Внутренние WAV-операции
Формат сэмплов : 44.100 Гц; 16 бит; стерео

TOC извлечённого CD

Трек | Старт | Длительность | Начальный сектор | Конечный сектор
---------------------------------------------------------------------
1 | 0:00.00 | 5:27.72 | 0 | 24596
2 | 5:27.72 | 3:47.22 | 24597 | 41643
3 | 9:15.19 | 5:34.72 | 41644 | 66765
4 | 14:50.16 | 3:19.02 | 66766 | 81692
5 | 18:09.18 | 5:20.52 | 81693 | 105744
6 | 23:29.70 | 9:08.32 | 105745 | 146876
7 | 32:38.27 | 5:31.34 | 146877 | 171735
8 | 38:09.61 | 2:29.10 | 171736 | 182920
9 | 40:38.71 | 4:58.54 | 182921 | 205324
10 | 45:37.50 | 4:15.35 | 205325 | 224484
11 | 49:53.10 | 4:17.42 | 224485 | 243801
12 | 54:10.52 | 5:43.72 | 243802 | 269598
13 | 59:54.49 | 8:19.27 | 269599 | 307050

Характеристики диапазона извлечения и сообщения об ошибках

Выбранный диапазон

Имя файла R:\M U S I C\LOSSLES NO\John Coltrane\The Gentle Side Of John Coltrane\John Coltrane - The Gentle Side Of John Coltrane.wav

Пиковый уровень 95.7 %
Качество диапазона 99.9 %
CRC копии 2016B0BE
Копирование... OK

Ошибок не произошло

Конец отчёта
Приватный:
Нет (DHT включён)
Размер:
335.42 Мб (351,710,612 байт) » файлов: 3
Участники:
0 раздают, 0 качают (0 участников всего)
Внешние участники:
3 раздают, 1 качают (4 участников всего) [ Обновить ]
15:28
35
RSS
Нет комментариев. Ваш будет первым!