Поиск

1975 (1987) Duke Ellington & Ray Brown - This One's For Blanton

1975 (1987) Duke Ellington & Ray Brown - This One's For Blanton
Стили:
Страна-производитель диска (релиза):
Germany
Дата записи диска:
5 декабря 1972
Дата издания диска:
1975
Дата переиздания диска:
1987
Издатель (лейбл):
Номер по каталогу:
CD 2310.721
Носитель:
CD
Битрейт аудио:
lossless
Аудиокодек:
FLAC (*.flac)
Тип рипа:
tracks+.cue
Время звучания:
00:39:51
Наличие сканов:
  • да
Релизёр (источник):
hvilon
Состав:
  • Ray Brown Bass — Composer, Liner Notes
  • Duke Ellington — Composer, Piano
  • Norman Granz - Liner Notes, Producer
  • Benny Green — Liner Notes
  • Val Valentin — Engineer                        

01. Do Nothin' Till You Hear From Me (5:36)
02. Pitter Panther Patter (3:05)
03. Things Ain't What They Used To Be (3:57)
04. Sophisticated Lady (5:28)
05. See See Rider (3:07)
06. Fragmented Suite For Piano And Bass - First Movement (4:51)
07. Fragmented Suite For Piano And Bass - Second Movement (5:10)
08. Fragmented Suite For Piano And Bass - Third Movement (3:40)
09. Fragmented Suite For Piano And Bass - Fourth Movement (4:57)

Лог создания рипа
Exact Audio Copy V0.99 prebeta 1 from 25. May 2007
Отчёт EAC об извлечении, выполненном 11. сентября 2007, 9:59
Duke Ellington & Ray Brown / This One's For Blanton
Дисковод: _NEC DVD_RW ND-4570A Adapter: 1 ID: 1
Режим чтения : Достоверность
Использование точного потока : Да
Отключение кэша аудио : Да
Использование указателей C2 : Нет
Коррекция смещения при чтении : 48
Способность читать области Lead-in и Lead-out : Нет
Заполнение пропущенных сэмплов тишиной : Да
Удаление блоков с тишиной в начале и конце : Нет
Интерфейс : Установленный внешний ASPI-интерфейс
Обработка зазоров : Не обнаружено, добавлено к предыдущему треку
Выходной формат : Пользовательский кодировщик
Выбранный битрейт : 1024 kBit/s
Качество : Высокий
Добавление ID3-тэга : Да
Утилита сжатия : C:\Program Files\Exact Audio Copy\flac-1.2.0-win\bin\flac.exe
Дополнительные параметры : -8 -V -T "artist=%a" -T "title=%t" -T "album=%g" -T "date=%y" -T "tracknumber=%n" -T "genre=%m" -T "comment=Innochka" %s
TOC извлечённого CD
Трек | Старт | Длительность | Начальный сектор | Конечный сектор
---------------------------------------------------------------------
1 | 0:02.00 | 5:36.07 | 150 | 25356
2 | 5:38.07 | 3:05.13 | 25357 | 39244
3 | 8:43.20 | 3:57.25 | 39245 | 57044
4 | 12:40.45 | 5:28.30 | 57045 | 81674
5 | 18:09.00 | 3:07.67 | 81675 | 95766
6 | 21:16.67 | 4:51.55 | 95767 | 117646
7 | 26:08.47 | 5:10.23 | 117647 | 140919
8 | 31:18.70 | 3:40.05 | 140920 | 157424
9 | 34:59.00 | 4:57.00 | 157425 | 179699
Трек 1
Имя файла G:\Imidg\Новая папка\Duke Ellington & Ray Brown - This One's for Blanton\01 - Do Nothin' Till You Hear From Me.wav
Пиковый уровень 79.9 %
Качество трека 100.0 %
CRC копии AC9BE27B
Копирование... OK
Трек 2
Имя файла G:\Imidg\Новая папка\Duke Ellington & Ray Brown - This One's for Blanton\02 - Pitter Panther Patter.wav
Пиковый уровень 92.6 %
Качество трека 100.0 %
CRC копии DB087F1D
Копирование... OK
Трек 3
Имя файла G:\Imidg\Новая папка\Duke Ellington & Ray Brown - This One's for Blanton\03 - Things Ain't What They Used To Be.wav
Пиковый уровень 68.1 %
Качество трека 100.0 %
CRC копии 8818A972
Копирование... OK
Трек 4
Имя файла G:\Imidg\Новая папка\Duke Ellington & Ray Brown - This One's for Blanton\04 - Sophisticated Lady.wav
Пиковый уровень 67.7 %
Качество трека 99.9 %
CRC копии 185EF328
Копирование... OK
Трек 5
Имя файла G:\Imidg\Новая папка\Duke Ellington & Ray Brown - This One's for Blanton\05 - See See Rider.wav
Пиковый уровень 60.0 %
Качество трека 100.0 %
CRC копии 119FFECA
Копирование... OK
Трек 6
Имя файла G:\Imidg\Новая папка\Duke Ellington & Ray Brown - This One's for Blanton\06 - Fragmented Suite For Piano And Bass - First Movement.wav
Пиковый уровень 74.0 %
Качество трека 100.0 %
CRC копии 55B4CAB2
Копирование... OK
Трек 7
Имя файла G:\Imidg\Новая папка\Duke Ellington & Ray Brown - This One's for Blanton\07 - Fragmented Suite For Piano And Bass - Second Movement.wav
Пиковый уровень 72.2 %
Качество трека 100.0 %
CRC копии 2808ADCE
Копирование... OK
Трек 8
Имя файла G:\Imidg\Новая папка\Duke Ellington & Ray Brown - This One's for Blanton\08 - Fragmented Suite For Piano And Bass - Third Movement.wav
Пиковый уровень 61.7 %
Качество трека 100.0 %
CRC копии 4AEA9E39
Копирование... OK
Трек 9
Имя файла G:\Imidg\Новая папка\Duke Ellington & Ray Brown - This One's for Blanton\09 - Fragmented Suite For Piano And Bass - Fourth Movement.wav
Пиковый уровень 79.2 %
Качество трека 100.0 %
CRC копии B77E5FFB
Копирование... OK
Ошибок не произошло
Конец отчёта
Содержание индексной карты (.CUE)
REM GENRE Jazz
REM DATE 1990
REM DISCID 65095A09
REM COMMENT "ExactAudioCopy v0.99pb1"
PERFORMER "Duke Ellington & Ray Brown"
TITLE "This One's For Blanton"
FILE "01 - Do Nothin' Till You Hear From Me.wav" WAVE TRACK 01 AUDIO TITLE "Do Nothin' Till You Hear From Me" PERFORMER "Duke Ellington & Ray Brown" PREGAP 00:02:00 INDEX 01 00:00:00 TRACK 02 AUDIO TITLE "Pitter Panther Patter" PERFORMER "Duke Ellington & Ray Brown" INDEX 00 05:34:07
FILE "02 - Pitter Panther Patter.wav" WAVE INDEX 01 00:00:00 TRACK 03 AUDIO TITLE "Things Ain't What They Used To Be" PERFORMER "Duke Ellington & Ray Brown" INDEX 00 03:03:13
FILE "03 - Things Ain't What They Used To Be.wav" WAVE INDEX 01 00:00:00 TRACK 04 AUDIO TITLE "Sophisticated Lady" PERFORMER "Duke Ellington & Ray Brown" INDEX 00 03:55:25
FILE "04 - Sophisticated Lady.wav" WAVE INDEX 01 00:00:00 TRACK 05 AUDIO TITLE "See See Rider" PERFORMER "Duke Ellington & Ray Brown" INDEX 00 05:26:30
FILE "05 - See See Rider.wav" WAVE INDEX 01 00:00:00 TRACK 06 AUDIO TITLE "Fragmented Suite For Piano And Bass - First Movement" PERFORMER "Duke Ellington & Ray Brown" INDEX 00 03:05:67
FILE "06 - Fragmented Suite For Piano And Bass - First Movement.wav" WAVE INDEX 01 00:00:00 TRACK 07 AUDIO TITLE "Fragmented Suite For Piano And Bass - Second Movement" PERFORMER "Duke Ellington & Ray Brown" INDEX 00 04:49:55
FILE "07 - Fragmented Suite For Piano And Bass - Second Movement.wav" WAVE INDEX 01 00:00:00 TRACK 08 AUDIO TITLE "Fragmented Suite For Piano And Bass - Third Movement" PERFORMER "Duke Ellington & Ray Brown" INDEX 00 05:08:23
FILE "08 - Fragmented Suite For Piano And Bass - Third Movement.wav" WAVE INDEX 01 00:00:00 TRACK 09 AUDIO TITLE "Fragmented Suite For Piano And Bass - Fourth Movement" PERFORMER "Duke Ellington & Ray Brown" INDEX 00 03:38:05
FILE "09 - Fragmented Suite For Piano And Bass - Fourth Movement.wav" WAVE INDEX 01 00:00:00
Скачивание доступно после регистрации!!
Приватный:
Нет (DHT включён)
Размер:
168.78 Мб (176,980,493 байт) » файлов: 16
Участники:
2 раздают, 0 качают (2 участников всего)
Внешние участники:
1 раздают, 0 качают (1 участников всего) [ Обновить ]
12:09
135
RSS
Нет комментариев. Ваш будет первым!