Поиск

1974 (1990) Gerry Mulligan & Astor Piazzolla - Summit - Reunion Cumbre {ANS 10005}

1974 (1990) Gerry Mulligan & Astor Piazzolla - Summit - Reunion Cumbre {ANS 10005}
Дата записи диска:
1-4 октября 1974
Дата издания диска:
1990
Номер по каталогу:
10005
Носитель:
CD
Битрейт аудио:
lossless
Аудиокодек:
FLAC (*.flac)
Тип рипа:
tracks+.cue
Время звучания:
32:43
Наличие сканов:
  • web
Релизёр (источник):
mrimidalv
Треклист:

01. 20 Years Ago (6:27)
02. Close Your Eyes and Listen (4:34)
03. Years of Solitude (4:09)
04. Deus Xango (3:48)
05. 20 Years After (4:13)
06. Aire de Buenos Aires (4:38)
07. Reminiscence (6:32)
08. Summit (3:36)

Состав:
  • Alberto Baldan    Marimba
  • Tullio De Piscopo    Drums, Percussion
  • Bruno DeFilippi    Guitar (Electric)
  • Gerry Mulligan    Composer, Sax (Baritone)
  • Aldo Pagani    Executive Producer, Producer
  • Astor Piazzolla    Arranger, Bandoneon, Composer, Conductor, Direction
  • Gianni Zilioli    Marimba
Лог создания рипа
EAC extraction logfile from 14. January 2007, 23:26 for CD
Gerry Mulligan & Astor Piazzolla / Summit

Used drive  : _NEC    DVD_RW ND-4550A   Adapter: 1  ID: 0
Read mode   : Secure with NO C2, accurate stream, disable cache
Read offset correction : 48
Overread into Lead-In and Lead-Out : No

Used output format : F:\-SOFT-\-AUDIO-\flac-1.1.2-win\bin\flac.exe   (User Defined Encoder)
                     128 kBit/s
                     Additional command line options : -V -8 -T "artist=%a" -T "title=%t" -T "album=%g" -T "date=%y" -T "tracknumber=%n" -T "genre=%m" %s

Other options      :
    Fill up missing offset samples with silence : Yes
    Delete leading and trailing silent blocks : No
    Native Win32 interface for Win NT & 2000

Track  1
     Filename E:\-Music-\Gerry Mulligan & Astor Piazzolla - Summit - Reunion Cumbre (1974) [FLAC]\01 - 20 YEARS AGO.wav

     Pre-gap length  0:00:02.00

     Peak level 95.5 %
     Track quality 100.0 %
     Test CRC 472EA35C
     Copy CRC 472EA35C
     Copy OK

Track  2
     Filename E:\-Music-\Gerry Mulligan & Astor Piazzolla - Summit - Reunion Cumbre (1974) [FLAC]\02 - CLOSE YOUR EYES AND LISTEN.wav

     Pre-gap length  0:00:02.00

     Peak level 97.6 %
     Track quality 99.9 %
     Test CRC 9E455D13
     Copy CRC 9E455D13
     Copy OK

Track  3
     Filename E:\-Music-\Gerry Mulligan & Astor Piazzolla - Summit - Reunion Cumbre (1974) [FLAC]\03 - YEARS OF SOLITUDE.wav

     Pre-gap length  0:00:02.00

     Peak level 93.3 %
     Track quality 100.0 %
     Test CRC 56AFD8C8
     Copy CRC 56AFD8C8
     Copy OK

Track  4
     Filename E:\-Music-\Gerry Mulligan & Astor Piazzolla - Summit - Reunion Cumbre (1974) [FLAC]\04 - DEUS XANGO.wav

     Pre-gap length  0:00:02.00

     Peak level 95.5 %
     Track quality 100.0 %
     Test CRC 71424458
     Copy CRC 71424458
     Copy OK

Track  5
     Filename E:\-Music-\Gerry Mulligan & Astor Piazzolla - Summit - Reunion Cumbre (1974) [FLAC]\05 - 20 YEARS AFTER.wav

     Pre-gap length  0:00:02.00

     Peak level 97.3 %
     Track quality 100.0 %
     Test CRC 0E08CB8E
     Copy CRC 0E08CB8E
     Copy OK

Track  6
     Filename E:\-Music-\Gerry Mulligan & Astor Piazzolla - Summit - Reunion Cumbre (1974) [FLAC]\06 - AIRE DE BUENOS AIRES.wav

     Pre-gap length  0:00:02.00

     Peak level 93.3 %
     Track quality 100.0 %
     Test CRC 856B5C96
     Copy CRC 856B5C96
     Copy OK

Track  7
     Filename E:\-Music-\Gerry Mulligan & Astor Piazzolla - Summit - Reunion Cumbre (1974) [FLAC]\07 - REMINISCENCE.wav

     Pre-gap length  0:00:02.00

     Peak level 95.5 %
     Track quality 100.0 %
     Test CRC 5BA0BB08
     Copy CRC 5BA0BB08
     Copy OK

Track  8
     Filename E:\-Music-\Gerry Mulligan & Astor Piazzolla - Summit - Reunion Cumbre (1974) [FLAC]\08 - SUMMIT.wav

     Pre-gap length  0:00:02.00

     Peak level 93.3 %
     Track quality 100.0 %
     Test CRC 0161F84E
     Copy CRC 0161F84E
     Copy OK

No errors occured

End of status report
Содержание индексной карты (.CUE)
REM DISCID 6E08E908
REM COMMENT "ExactAudioCopy v0.95b3"
PERFORMER "Gerry Mulligan & Astor Piazzolla"
TITLE "Summit"
FILE "01 - 20 YEARS AGO.wav" WAVE
  TRACK 01 AUDIO
    TITLE "20 YEARS AGO"
    PERFORMER "Gerry Mulligan & Astor Piazzolla"
    FLAGS DCP
    INDEX 01 00:00:00
  TRACK 02 AUDIO
    TITLE "CLOSE YOUR EYES AND LISTEN"
    PERFORMER "Gerry Mulligan & Astor Piazzolla"
    FLAGS DCP
    INDEX 00 06:25:57
FILE "02 - CLOSE YOUR EYES AND LISTEN.wav" WAVE
    INDEX 01 00:00:00
  TRACK 03 AUDIO
    TITLE "YEARS OF SOLITUDE"
    PERFORMER "Gerry Mulligan & Astor Piazzolla"
    FLAGS DCP
    INDEX 00 04:32:45
FILE "03 - YEARS OF SOLITUDE.wav" WAVE
    INDEX 01 00:00:00
  TRACK 04 AUDIO
    TITLE "DEUS XANGO"
    PERFORMER "Gerry Mulligan & Astor Piazzolla"
    FLAGS DCP
    INDEX 00 04:07:65
FILE "04 - DEUS XANGO.wav" WAVE
    INDEX 01 00:00:00
  TRACK 05 AUDIO
    TITLE "20 YEARS AFTER"
    PERFORMER "Gerry Mulligan & Astor Piazzolla"
    FLAGS DCP
    INDEX 00 03:46:18
FILE "05 - 20 YEARS AFTER.wav" WAVE
    INDEX 01 00:00:00
  TRACK 06 AUDIO
    TITLE "AIRE DE BUENOS AIRES"
    PERFORMER "Gerry Mulligan & Astor Piazzolla"
    FLAGS DCP
    INDEX 00 04:11:30
FILE "06 - AIRE DE BUENOS AIRES.wav" WAVE
    INDEX 01 00:00:00
  TRACK 07 AUDIO
    TITLE "REMINISCENCE"
    PERFORMER "Gerry Mulligan & Astor Piazzolla"
    FLAGS DCP
    INDEX 00 04:36:32
FILE "07 - REMINISCENCE.wav" WAVE
    INDEX 01 00:00:00
  TRACK 08 AUDIO
    TITLE "SUMMIT"
    PERFORMER "Gerry Mulligan & Astor Piazzolla"
    FLAGS DCP
    INDEX 00 06:30:23
FILE "08 - SUMMIT.wav" WAVE
    INDEX 01 00:00:00
19:39
30
RSS
Нет комментариев. Ваш будет первым!