Поиск

1972 (2009) Joe Albany - Pasadena Session {ABCJ-564}

1972 (2009) Joe Albany - Pasadena Session {ABCJ-564}
Страна-производитель диска (релиза):
Japan
Дата записи диска:
29 февраля 1972
Дата издания диска:
23 декабря 2009
Издатель (лейбл):
Номер по каталогу:
ABCJ-564
Носитель:
CD
Битрейт аудио:
lossless
Аудиокодек:
FLAC (*.flac)
Тип рипа:
image+.cue
Время звучания:
46:54
Наличие сканов:
  • да
Релизёр (источник):
fiks22
Треклист:

01. Night in Tunisia (Gillespie-Paparelli) - 5:31
02. Willow Weep for Me (Ronell) - 4:08
03. Like Someone in Love (Burke-Van Heusen) - 5:10
04. What Are You Doing the Rest of Your Life (Bergman-Legrand) - 4:34
05. Barbados (Parker) - 4:05
06. St. Thomas (Rollins) - 4:24
07. In a Sentimental Mood/Prelude to a Kiss/Sophisticated Lady (Ellington) - 5:27
08. Yellow Days (Camarillo-Bernstein) - 4:56
09. Everything Happens to Me (Adair-Dennis) - 3:03
10. When Lights Are Low (Carter) - 5:33

Состав:
  • Joe Albany — piano
  • Bob Whitlock — bass
  • Frank Butler — drums

Recorded in Pasadena, CA on February 29, 1972.

Exact Audio Copy V1.0 beta 6 from 9. April 2015EAC extraction logfile from 31. May 2015, 21:14Joe Albany / Pasadena SessionUsed drive: ASUS DRW-24B1LT Adapter: 1 ID: 1Read mode: SecureUtilize accurate stream: YesDefeat audio cache: YesMake use of C2 pointers: NoRead offset correction: 6Overread into Lead-In and Lead-Out: NoFill up missing offset samples with silence: YesDelete leading and trailing silent blocks: NoNull samples used in CRC calculations: YesUsed interface: Native Win32 interface for Win NT & 2000Used output format: User Defined EncoderSelected bitrate: 768 kBit/sQuality: HighAdd ID3 tag: NoCommand line compressor: C:\Program Files\Exact Audio Copy\Flac\flac.exeAdditional command line options: -8 -V -T «ARTIST=%artist%» -T «TITLE=%title%» -T «ALBUM=%albumtitle%» -T «DATE=%year%» -T «TRACKNUMBER=%tracknr%» -T «TOTALTRACKS=%numtracks%» -T «GENRE=%genre%» -T «ALBUMARTIST=%albumartist%» -T «ALBUM ARTIST=%albumartist%» -T «COMMENT=EAC Secure Mode, Test & Copy, AccurateRip, FLAC -8» %source%TOC of the extracted CD Track | Start | Length | Start sector | End sector — 1 | 0:00.00 | 5:31.30 | 0 | 24854 2 | 5:31.30 | 4:08.02 | 24855 | 43456 3 | 9:39.32 | 5:10.35 | 43457 | 66741 4 | 14:49.67 | 4:34.27 | 66742 | 87318 5 | 19:24.19 | 4:04.68 | 87319 | 105686 6 | 23:29.12 | 4:24.18 | 105687 | 125504 7 | 27:53.30 | 5:27.34 | 125505 | 150063 8 | 33:20.64 | 4:56.10 | 150064 | 172273 9 | 38:16.74 | 3:03.37 | 172274 | 186035 10 | 41:20.36 | 5:33.35 | 186036 | 211045Range status and errorsSelected range Filename F:\audio\Joe Albany — Pasadena Session.wav Peak level 100.0 % Extraction speed 5.4 X Range quality 100.0 % Test CRC B4D4FCB4 Copy CRC B4D4FCB4 Copy OKNo errors occurredAccurateRip summaryTrack 1 not present in databaseTrack 2 not present in databaseTrack 3 not present in databaseTrack 4 not present in databaseTrack 5 not present in databaseTrack 6 not present in databaseTrack 7 not present in databaseTrack 8 not present in databaseTrack 9 not present in databaseTrack 10 not present in databaseNone of the tracks are present in the AccurateRip databaseEnd of status report---- CUETools DB Plugin V2.1.6[CTDB TOCID: Sxe5rrjqNgt3c8DnBBOyQ.igLNk-] foundSubmit result: Sxe5rrjqNgt3c8DnBBOyQ.igLNk- has been confirmedTrack | CTDB Status 1 | (1/1) Accurately ripped 2 | (1/1) Accurately ripped 3 | (1/1) Accurately ripped 4 | (1/1) Accurately ripped 5 | (1/1) Accurately ripped 6 | (1/1) Accurately ripped 7 | (1/1) Accurately ripped 8 | (1/1) Accurately ripped 9 | (1/1) Accurately ripped 10 | (1/1) Accurately ripped==== Log checksum 5BCFDC0E64C403598165BEAB84681E580B8363C893EA3B59DD6FE22ACF2D9A99 ====
REM GENRE Jazz
REM DATE 1972
REM DISCID 7C0AFD0A
REM COMMENT "ExactAudioCopy v1.0b6"
PERFORMER "Joe Albany"
TITLE "Pasadena Session"
FILE "Joe Albany - Pasadena Session.wav" WAVE TRACK 01 AUDIO TITLE "Night in Tunisia" PERFORMER "Joe Albany" INDEX 01 00:00:00 TRACK 02 AUDIO TITLE "Willow Weep for Me" PERFORMER "Joe Albany" INDEX 00 05:29:00 INDEX 01 05:31:30 TRACK 03 AUDIO TITLE "Like Someone in Love" PERFORMER "Joe Albany" INDEX 00 09:37:02 INDEX 01 09:39:32 TRACK 04 AUDIO TITLE "What Are You Doing the Rest of Your Life" PERFORMER "Joe Albany" INDEX 00 14:47:32 INDEX 01 14:49:67 TRACK 05 AUDIO TITLE "Barbados" PERFORMER "Joe Albany" INDEX 00 19:21:65 INDEX 01 19:24:19 TRACK 06 AUDIO TITLE "St. Thomas" PERFORMER "Joe Albany" INDEX 00 23:26:57 INDEX 01 23:29:12 TRACK 07 AUDIO TITLE "In a Sentimental Mood/Prelude to a Kiss/Sophisticated Lady" PERFORMER "Joe Albany" INDEX 00 27:50:70 INDEX 01 27:53:30 TRACK 08 AUDIO TITLE "Yellow Days" PERFORMER "Joe Albany" INDEX 00 33:18:29 INDEX 01 33:20:64 TRACK 09 AUDIO TITLE "Everything Happens to Me" PERFORMER "Joe Albany" INDEX 00 38:14:39 INDEX 01 38:16:74 TRACK 10 AUDIO TITLE "When Lights Are Low" PERFORMER "Joe Albany" INDEX 00 41:18:06 INDEX 01 41:20:36
[CUETools log; Date: 31.05.2015 22:04:15; Version: 2.1.5][CTDB TOCID: Sxe5rrjqNgt3c8DnBBOyQ.igLNk-] found.Track | CTDB Status 1 | (2/2) Accurately ripped 2 | (2/2) Accurately ripped 3 | (2/2) Accurately ripped 4 | (2/2) Accurately ripped 5 | (2/2) Accurately ripped 6 | (2/2) Accurately ripped 7 | (2/2) Accurately ripped 8 | (2/2) Accurately ripped 9 | (2/2) Accurately ripped 10 | (2/2) Accurately ripped[AccurateRip ID: 0011e5f9-008e59fa-7c0afd0a] disk not present in database.Track Peak [ CRC32 ] [W/O NULL] [ LOG ] — 99,9 [B4D4FCB4] [F4D6B2D4] CRC32 01 99,9 [1204B928] [B11C8C58] 02 98,6 [BF81AA9D] [CB693378] 03 99,4 [8EEAAE49] [DA5E84E3] 04 82,7 [0B4202A8] [2644E1D8] 05 99,2 [6AB9AEB9] [84872541] 06 96,5 [A85CB6E0] [687BB680] 07 94,8 [A978A69E] [5D90B4C6] 08 99,9 [30D05DB0] [E66AD679] 09 84,2 [CF0B055D] [63DDA5CF] 10 90,8 [26E4DF26] [2ADAF4B1]
18:36
65
RSS
Нет комментариев. Ваш будет первым!