Вы используете незарегистрированную версию компонента "Вкладки"!

Поиск

1971 Wayne Shorter - Odyssey Of Iska (1987 Digital Remaster) (2014) {Capitol} [24-192]

1971 Wayne Shorter - Odyssey Of Iska (1987 Digital Remaster) (2014) {Capitol} [24-192]
Дата записи диска:
26 августа 1970
Место записи:
A&R Studios, New York City, NY, USA
Издатель (лейбл):
Носитель:
CD
Формат:
PCM
Тип рипа:
tracks
Контейнер:
FLAC (*.flac)
Количество каналов:
2.0
Разрядность/ЧД:
24/192
Битрейт аудио:
lossless
Время звучания:
00:40:20
Наличие сканов:
только обложка
Страна-производитель диска (релиза):
USA
Релизёр (источник):
M0p94ok
Доп. инфо:

Odyssey of Iska стал результатом второй записи с Шортером, продюсером которой выступил Дюк Пирсон (Duke Pearson). (Первая сессия, Moto Grosso Feio 3 апреля 1970 года, была выпущена только в 1974 году). За исключением Рона Картера, был совершенно другой состав, хотя и с похожей аппаратурой: саксофон Шортера как единственный духовой, гитара вместо клавишных - два контрабаса и различные ударные инструменты, включая маримбу и вибрафон. Такой же упор на перкуссию можно найти и во время записи, которую провел Джо Завинул всего за две недели до этого, 10 августа, когда Уэйн Шортер был гостем на "Double Image" (выпущенном на Zawinul).

Уэйн Шортер только что женился на Ане Марии Патрисио, с которой познакомился четырьмя годами ранее. Имя «Иска» в названии альбома относится к их дочери. Она родилась примерно в то время, когда была сделана пластинка.

Один из перкуссионистов Odyssey of Iska, Фрэнк Куомо, является отцом фронтмена рок-группы Weezer Риверса Куомо. Остальные барабанщики - Билли Харт и Альфонс Музон.

Лог проверки качества
foobar2000 1.3.16 / Dynamic Range Meter 1.1.1
log date: 2019-04-17 20:02:47

--------------------------------------------------------------------------------
Analyzed: Wayne Shorter / Odyssey Of Iska
--------------------------------------------------------------------------------

DR         Peak         RMS     Duration Track
--------------------------------------------------------------------------------
DR11      -1.53 dB   -15.68 dB      8:01 01-Wind (1987 Digital Remaster)
DR11      -0.85 dB   -15.10 dB      8:16 02-Storm (1987 Digital Remaster)
DR11      -3.23 dB   -17.45 dB      3:23 03-Calm (1987 Digital Remaster)
DR11      -0.51 dB   -14.63 dB     11:35 04-De Pois Do Amor, O Vazio (After Love, Emptiness) (1987 Digital Remaster)
DR12      -0.09 dB   -15.47 dB      9:00 05-Joy (1987 Digital Remaster)
--------------------------------------------------------------------------------

Number of tracks:  5
Official DR value: DR11

Samplerate:        192000 Hz
Channels:          2
Bits per sample:   24
Bitrate:           5152 kbps
Codec:             FLAC
================================================================================
Any questions - support@pro-jazz.com. Есть вопросы - support@pro-jazz.com
15:04
167
Нет комментариев. Ваш будет первым!