Поиск

1970 (2000) Herbie Hancock - The Prisoner

1970 (2000) Herbie Hancock - The Prisoner
Страна-производитель диска (релиза):
Usa
Дата записи диска:
18-23 апреля 1969
Дата издания диска:
январь 1970
Дата переиздания диска:
10 октября 2000
Издатель (лейбл):
Номер по каталогу:
7243 5 25649 2 7
Носитель:
CD
Битрейт аудио:
lossless
Аудиокодек:
FLAC (*.flac)
Тип рипа:
tracks
Время звучания:
55:39
Треклист:
01 - I Have a Dream (10:58)
02 - The Prisoner (07:57)
03 - Firewater (07:33)
04 - He Who Lives in Fear (06:51)
05 - Promise of the Sun (07:52)
06 - The Prisoner [Alternate Take][x] (05:47)
07 - Firewater [Alternate Take][x] (08:38)
Состав:
  • Garnett Brown Trombone
  • Johnny Coles Trumpet, Flugelhorn
  • Herbie Hancock Piano, Piano (Electric)
  • Albert «Tootie» Heath Drums
  • Joe Henderson Flute, Sax (Tenor)
  • **Jack Jeffers Trombone (Bass)
  • *Hubert Laws Flute
  • **Romeo Penque Clarinet (Bass)
  • Jerome Richardson **Flute,
  • * Clarinet (Bass)
  • *Tony Studd Trombone (Bass)
  • Buster Williams Bass
EAC extraction logfile from 8. August 2005, 11:10 for CD
Herbie Hancock / The Prisoner
Used drive : _NEC DVD_RW ND-3500AG Adapter: 0 ID: 0 LUN: 0
Read mode : Secure with NO C2, accurate stream, disable cache
Read offset correction : 66
Overread into Lead-In and Lead-Out : No
Used output format : Internal WAV Routines
44.100 Hz; 16 Bit; Stereo
Other options :
Fill up missing offset samples with silence : Yes
Delete leading and trailing silent blocks : No
Installed external ASPI interface
Track 1
Filename C:\01 - I Have a Dream.wav
Pre-gap length 0:00:02.00
Peak level 97.9 %
Track quality 100.0 %
Test CRC E8A94130
Copy CRC E8A94130
Copy OK
Track 2
Filename C:\02 - The Prisoner.wav
Pre-gap length 0:00:01.93
Peak level 97.9 %
Track quality 100.0 %
Test CRC A6A6CFEC
Copy CRC A6A6CFEC
Copy OK
Track 3
Filename C:\03 - Firewater.wav
Pre-gap length 0:00:02.69
Peak level 97.9 %
Track quality 100.0 %
Test CRC F26FE829
Copy CRC F26FE829
Copy OK
Track 4
Filename C:\04 - He Who Lives in Fear.wav
Pre-gap length 0:00:02.49
Peak level 96.7 %
Track quality 100.0 %
Test CRC 980B8A9E
Copy CRC 980B8A9E
Copy OK
Track 5
Filename C:\05 - Promise of the Sun.wav
Pre-gap length 0:00:02.54
Peak level 97.9 %
Track quality 100.0 %
Test CRC BA20222D
Copy CRC BA20222D
Copy OK
Track 6
Filename C:\06 - The Prisoner [Alternate Take][x].wav
Pre-gap length 0:00:02.50
Peak level 92.9 %
Track quality 100.0 %
Test CRC 26832454
Copy CRC 26832454
Copy OK
Track 7
Filename C:\07 - Firewater [Alternate Take][x].wav
Pre-gap length 0:00:02.45
Peak level 97.9 %
Track quality 100.0 %
Test CRC 4EBD59F5
Copy CRC 4EBD59F5
Copy OK
No errors occured
End of status report
Приватный:
Нет (DHT включён)
Размер:
359.63 Мб (377,096,276 байт) » файлов: 29
Участники:
0 раздают, 0 качают (0 участников всего)
Внешние участники:
7 раздают, 2 качают (9 участников всего) [ Обновить ]
Скорость:
Торрент не зарегистрирован на трекере
16:29
43
RSS
Нет комментариев. Ваш будет первым!