Вы используете незарегистрированную версию компонента "Вкладки"!

Поиск

1970-1983 Jazz Live Trio with Guests - Swiss Radio Days Jazz Series: Live Concert, Vol.25 (2011) {TCB} [CD]

1970-1983 Jazz Live Trio with Guests - Swiss Radio Days Jazz Series: Live Concert, Vol.25 (2011) {TCB} [CD]
Стили:
Треклист:
01. Sanza [08:05]
02. Stella By Starlight [10:39]
03. Summertime [12:25]
04. I CanҴ Get Started [08:43]
05. Nows the Time [10:16]
06. Misty [08:12]
07. Wee [08:41]
Состав:
  • Idrees Sulieman — tp
  • Benny Bailey — tp
  • Klaus Koening — p
  • Peter Frei — b
  • Makaya Ntshoko, Heinz Liebpeter Schmidlin, & Pierre Favre — dr

1-3: Recorded live on May 2, 1970 & December 12, 1983 at studio 2, Zürich
4-7: Recorded live on February 9, 1975 & December 4, 1982 at studio 2, Zürich.

Доп. инфо:

Год издания: 2011
Издатель (лейбл): TCB
Аудиокодек: FLAC (*.flac)
Тип рипа: image+.cue
Битрейт аудио: lossless
Продолжительность: 01:07:04
Источник (релизер): Karelin
Наличие сканов в содержимом раздачи: нет

 
Лог создания рипа
Exact Audio Copy V1.0 beta 1 from 15. November 2010
EAC extraction logfile from 4. April 2012, 21:44
BENNY BAILEY, IDRESS SULIEMAN / SWISS RADIO DAYS SERIES - VOLUME 25
Used drive  : ATAPI   DVD A  DH20A4P   Adapter: 1  ID: 0
Read mode               : Secure
Utilize accurate stream : Yes
Defeat audio cache      : Yes
Make use of C2 pointers : No
Read offset correction                      : 6
Overread into Lead-In and Lead-Out          : No
Fill up missing offset samples with silence : Yes
Delete leading and trailing silent blocks   : No
Null samples used in CRC calculations       : Yes
Used interface                              : Installed external ASPI interface
Used output format              : User Defined Encoder
Selected bitrate                : 1024 kBit/s
Quality                         : High
Add ID3 tag                     : No
Command line compressor         : C:\Program Files\Exact Audio Copy\Flac\flac.exe
Additional command line options : -5 -V -T "ARTIST=%a" -T "TITLE=%t" -T "ALBUM=%g" -T "DATE=%y" -T "TRACKNUMBER=%n" -T "GENRE=%m" -T "COMMENT=[oStereo.ru]" %s
TOC of the extracted CD
     Track |   Start  |  Length  | Start sector | End sector
    ---------------------------------------------------------
        1  |  0:00.00 |  8:05.74 |         0    |    36448
        2  |  8:05.74 | 10:39.19 |     36449    |    84392
        3  | 18:45.18 | 12:34.09 |     84393    |   140951
        4  | 31:19.27 |  8:43.10 |    140952    |   180186
        5  | 40:02.37 | 10:16.49 |    180187    |   226435
        6  | 50:19.11 |  8:12.60 |    226436    |   263395
        7  | 58:31.71 |  8:41.04 |    263396    |   302474
Range status and errors
Selected range
     Filename D:\BENNY BAILEY, IDRESS SULIEMAN - SWISS RADIO DAYS SERIES - VOLUME 25 - TCB.wav
     Peak level 99.0 %
     Extraction speed 0.4 X
     Range quality 100.0 %
     Test CRC 0FB56406
     Copy CRC 0FB56406
     Copy OK
No errors occurred
AccurateRip summary
Track  1  not present in database
Track  2  not present in database
Track  3  not present in database
Track  4  not present in database
Track  5  not present in database
Track  6  not present in database
Track  7  not present in database
None of the tracks are present in the AccurateRip database
End of status report
==== Log checksum 7C1399724F77173582E35EA4A856A8CABB3169A9B4F3F56F2222688BC713ED15 ====
 
 
Содержание индексной карты (.CUE)
REM GENRE Jazz
REM DATE 1970
REM DISCID 4E0FC107
REM COMMENT "ExactAudioCopy v1.0b1"
PERFORMER "BENNY BAILEY, IDRESS SULIEMAN"
TITLE "SWISS RADIO DAYS SERIES - VOLUME 25"
FILE "BENNY BAILEY, IDRESS SULIEMAN - SWISS RADIO DAYS SERIES - VOLUME 25 - TCB.flac" WAVE
  TRACK 01 AUDIO
    TITLE "Sanza"
    PERFORMER "BENNY BAILEY, IDRESS SULIEMAN"
    INDEX 01 00:00:00
  TRACK 02 AUDIO
    TITLE "Stella By Starlight"
    PERFORMER "BENNY BAILEY, IDRESS SULIEMAN"
    INDEX 01 08:05:74
  TRACK 03 AUDIO
    TITLE "Summertime"
    PERFORMER "BENNY BAILEY, IDRESS SULIEMAN"
    INDEX 01 18:45:18
  TRACK 04 AUDIO
    TITLE "I CanТt Get Started"
    PERFORMER "BENNY BAILEY, IDRESS SULIEMAN"
    INDEX 00 31:11:04
    INDEX 01 31:19:27
  TRACK 05 AUDIO
    TITLE "Nows the Time"
    PERFORMER "BENNY BAILEY, IDRESS SULIEMAN"
    INDEX 01 40:02:37
  TRACK 06 AUDIO
    TITLE "Misty "
    PERFORMER "BENNY BAILEY, IDRESS SULIEMAN"
    INDEX 01 50:19:11
  TRACK 07 AUDIO
    TITLE "Wee"
    PERFORMER "BENNY BAILEY, IDRESS SULIEMAN"
    INDEX 01 58:31:71
Any questions - support@pro-jazz.com. Есть вопросы - support@pro-jazz.com
01:09
298
Нет комментариев. Ваш будет первым!