Поиск

1968 (2017) Bill Evans - Another Time: The Hilversum Concert {Resonance HCD-2031}

1968 (2017) Bill Evans - Another Time: The Hilversum Concert {Resonance HCD-2031}
Стили:
Страна-производитель диска (релиза):
USA
Дата записи диска:
22 июня 1968
Дата издания диска:
1 сентября 2017
Издатель (лейбл):
Номер по каталогу:
HCD-2031
Носитель:
CD
Битрейт аудио:
lossless
Аудиокодек:
FLAC (*.flac)
Тип рипа:
tracks+.cue
Время звучания:
46:09
Наличие сканов:
  • нет
Релизёр (источник):
baltiysky
Треклист:

1. You're Gonna Hear From Me (04:30)
2. Very Early (05:14)
3. Who Can I Turn To? (05:36)
4. Alfie (05:29)
5. Embraceable You (05:05)
6. Emily (04:22)
7. Nardis (08:34)
8. Turn Out Of The Stars (04:53)
9. Five (02:26)

Состав:
  • Bill Evans: Piano
  • Eddie Gomez: Double Bass
  • Jack DeJohnette: Drums

Recorded at Netherlands Radio Union (NRU) VARA Studio 8, Hilversum, Netherlands on June 22, 1968. 

X Lossless Decoder version 20170729 (150.3)
XLD extraction logfile from 2017-09-07 21:16:48 +0200
Bill Evans (p), Eddie Gomez (b), Jack Dejohnette (d) / Another Time - The Hilversum Concert
Used drive : HL-DT-ST DVDRW GS23N (revision SB07)
Media type : Pressed CD
Ripper mode : XLD Secure Ripper
Disable audio cache : OK for the drive with a cache less than 1375KiB
Make use of C2 pointers : NO
Read offset correction : 667
Max retry count : 100
Gap status : Analyzed, Appended (except HTOA)
TOC of the extracted CD Track | Start | Length | Start sector | End sector --------------------------------------------------------- 1 | 00:00:00 | 04:38:03 | 0 | 20852 2 | 04:38:03 | 05:24:61 | 20853 | 45213 3 | 10:02:64 | 05:45:27 | 45214 | 71115 4 | 15:48:16 | 05:41:35 | 71116 | 96725 5 | 21:29:51 | 05:11:39 | 96726 | 120089 6 | 26:41:15 | 04:33:19 | 120090 | 140583 7 | 31:14:34 | 08:47:53 | 140584 | 180161 8 | 40:02:12 | 05:02:23 | 180162 | 202834 9 | 45:04:35 | 02:41:03 | 202835 | 214912
AccurateRip Summary Disc not found in AccurateRip DB.
All Tracks Album gain : -5.01 dB Peak : 0.964447 Statistics Read error : 0 Jitter error (maybe fixed) : 0 Retry sector count : 0 Damaged sector count : 0
Track 01 Filename : /Volumes/HDD-DATA/Transcodes/Bill Evans (p), Eddie Gomez (b), Jack Dejohnette (d) - 2017 - Another Time - The Hilversum Concert [FLAC]/01 You're Gonna Hear From Me.flac Pre-gap length : 00:02:00 Track gain : -6.98 dB Peak : 0.964447 CRC32 hash (test run) : 8C5B3BD6 CRC32 hash : 8C5B3BD6 CRC32 hash (skip zero) : B6CC68BC AccurateRip v1 signature : A6EA7B78 AccurateRip v2 signature : 8F363538 ->Track not present in AccurateRip database. Statistics Read error : 0 Jitter error (maybe fixed) : 0 Retry sector count : 0 Damaged sector count : 0
Track 02 Filename : /Volumes/HDD-DATA/Transcodes/Bill Evans (p), Eddie Gomez (b), Jack Dejohnette (d) - 2017 - Another Time - The Hilversum Concert [FLAC]/02 Very Early.flac Pre-gap length : 00:01:57 Track gain : -4.63 dB Peak : 0.913788 CRC32 hash (test run) : 52B7D5F1 CRC32 hash : 52B7D5F1 CRC32 hash (skip zero) : E969B097 AccurateRip v1 signature : 0157AC3C AccurateRip v2 signature : FBA51E77 ->Track not present in AccurateRip database. Statistics Read error : 0 Jitter error (maybe fixed) : 0 Retry sector count : 0 Damaged sector count : 0
Track 03 Filename : /Volumes/HDD-DATA/Transcodes/Bill Evans (p), Eddie Gomez (b), Jack Dejohnette (d) - 2017 - Another Time - The Hilversum Concert [FLAC]/03 Who Can I Turn To?.flac Pre-gap length : 00:00:27 Track gain : -5.16 dB Peak : 0.890198 CRC32 hash (test run) : 956B552A CRC32 hash : 956B552A CRC32 hash (skip zero) : 2F952F49 AccurateRip v1 signature : D454B5AF AccurateRip v2 signature : 24A38887 ->Track not present in AccurateRip database. Statistics Read error : 0 Jitter error (maybe fixed) : 0 Retry sector count : 0 Damaged sector count : 0
Track 04 Filename : /Volumes/HDD-DATA/Transcodes/Bill Evans (p), Eddie Gomez (b), Jack Dejohnette (d) - 2017 - Another Time - The Hilversum Concert [FLAC]/04 Alfie.flac Pre-gap length : 00:01:57 Track gain : -5.97 dB Peak : 0.872223 CRC32 hash (test run) : 7E557C0C CRC32 hash : 7E557C0C CRC32 hash (skip zero) : 67A2E364 AccurateRip v1 signature : 0130E172 AccurateRip v2 signature : A166093C ->Track not present in AccurateRip database. Statistics Read error : 0 Jitter error (maybe fixed) : 0 Retry sector count : 0 Damaged sector count : 0
Track 05 Filename : /Volumes/HDD-DATA/Transcodes/Bill Evans (p), Eddie Gomez (b), Jack Dejohnette (d) - 2017 - Another Time - The Hilversum Concert [FLAC]/05 Embraceable You.flac Pre-gap length : 00:01:57 Track gain : -3.41 dB Peak : 0.883575 CRC32 hash (test run) : D14A1F47 CRC32 hash : D14A1F47 CRC32 hash (skip zero) : 7FA15F11 AccurateRip v1 signature : 742432DE AccurateRip v2 signature : 645C1553 ->Track not present in AccurateRip database. Statistics Read error : 0 Jitter error (maybe fixed) : 0 Retry sector count : 0 Damaged sector count : 0
Track 06 Filename : /Volumes/HDD-DATA/Transcodes/Bill Evans (p), Eddie Gomez (b), Jack Dejohnette (d) - 2017 - Another Time - The Hilversum Concert [FLAC]/06 Emily.flac Pre-gap length : 00:01:57 Track gain : -5.66 dB Peak : 0.916748 CRC32 hash (test run) : 98B9B25D CRC32 hash : 98B9B25D CRC32 hash (skip zero) : 30FA6B96 AccurateRip v1 signature : 44B6077A AccurateRip v2 signature : 3F6B1AFD ->Track not present in AccurateRip database. Statistics Read error : 0 Jitter error (maybe fixed) : 0 Retry sector count : 0 Damaged sector count : 0
Track 07 Filename : /Volumes/HDD-DATA/Transcodes/Bill Evans (p), Eddie Gomez (b), Jack Dejohnette (d) - 2017 - Another Time - The Hilversum Concert [FLAC]/07 Nardis.flac Pre-gap length : 00:01:57 Track gain : -2.23 dB Peak : 0.902496 CRC32 hash (test run) : C3DBB654 CRC32 hash : C3DBB654 CRC32 hash (skip zero) : 41C7BB58 AccurateRip v1 signature : 7F50108E AccurateRip v2 signature : 727E5214 ->Track not present in AccurateRip database. Statistics Read error : 0 Jitter error (maybe fixed) : 0 Retry sector count : 0 Damaged sector count : 0
Track 08 Filename : /Volumes/HDD-DATA/Transcodes/Bill Evans (p), Eddie Gomez (b), Jack Dejohnette (d) - 2017 - Another Time - The Hilversum Concert [FLAC]/08 Turn Out Of The Stars.flac Pre-gap length : 00:01:57 Track gain : -4.47 dB Peak : 0.881226 CRC32 hash (test run) : CD6C53DB CRC32 hash : CD6C53DB CRC32 hash (skip zero) : DED2544A AccurateRip v1 signature : BE789944 AccurateRip v2 signature : 05D0FBC4 ->Track not present in AccurateRip database. Statistics Read error : 0 Jitter error (maybe fixed) : 0 Retry sector count : 0 Damaged sector count : 0
Track 09 Filename : /Volumes/HDD-DATA/Transcodes/Bill Evans (p), Eddie Gomez (b), Jack Dejohnette (d) - 2017 - Another Time - The Hilversum Concert [FLAC]/09 Five.flac Pre-gap length : 00:01:57 Track gain : -5.43 dB Peak : 0.921814 CRC32 hash (test run) : B9B20ADD CRC32 hash : B9B20ADD CRC32 hash (skip zero) : 5AB746DE AccurateRip v1 signature : D4B19A71 AccurateRip v2 signature : A7434588 ->Track not present in AccurateRip database. Statistics Read error : 0 Jitter error (maybe fixed) : 0 Retry sector count : 0 Damaged sector count : 0
No errors occurred
End of status report
-----BEGIN XLD SIGNATURE-----
J9nDDOGBdNnV_e9eFryp3AFpXUSsFhidQCHV9aQsXf0UrP.Sra3juE5nS3FrzChSQHKl9o4WelFwzG15hdfqYw8A5GDfA8GGhv2MXQu
-----END XLD SIGNATURE-----
TITLE "Another Time - The Hilversum Concert"
PERFORMER "Bill Evans (p), Eddie Gomez (b), Jack Dejohnette (d)"
CATALOG 0096802280405
REM GENRE "Jazz"
REM DATE "2017"
REM DISCID 6A0B3109
REM REPLAYGAIN_ALBUM_GAIN -5.01 dB
REM REPLAYGAIN_ALBUM_PEAK 0.964447
FILE "01 You're Gonna Hear From Me.flac" WAVE TRACK 01 AUDIO TITLE "You're Gonna Hear From Me" REM REPLAYGAIN_TRACK_GAIN -6.98 dB REM REPLAYGAIN_TRACK_PEAK 0.964447 INDEX 01 00:00:00 TRACK 02 AUDIO TITLE "Very Early" REM REPLAYGAIN_TRACK_GAIN -4.63 dB REM REPLAYGAIN_TRACK_PEAK 0.913788 INDEX 00 04:36:21
FILE "02 Very Early.flac" WAVE INDEX 01 00:00:00 TRACK 03 AUDIO TITLE "Who Can I Turn To?" REM REPLAYGAIN_TRACK_GAIN -5.16 dB REM REPLAYGAIN_TRACK_PEAK 0.890198 INDEX 00 05:24:34
FILE "03 Who Can I Turn To?.flac" WAVE INDEX 01 00:00:00 TRACK 04 AUDIO TITLE "Alfie" REM REPLAYGAIN_TRACK_GAIN -5.97 dB REM REPLAYGAIN_TRACK_PEAK 0.872223 INDEX 00 05:43:45
FILE "04 Alfie.flac" WAVE INDEX 01 00:00:00 TRACK 05 AUDIO TITLE "Embraceable You" REM REPLAYGAIN_TRACK_GAIN -3.41 dB REM REPLAYGAIN_TRACK_PEAK 0.883575 INDEX 00 05:39:53
FILE "05 Embraceable You.flac" WAVE INDEX 01 00:00:00 TRACK 06 AUDIO TITLE "Emily" REM REPLAYGAIN_TRACK_GAIN -5.66 dB REM REPLAYGAIN_TRACK_PEAK 0.916748 INDEX 00 05:09:57
FILE "06 Emily.flac" WAVE INDEX 01 00:00:00 TRACK 07 AUDIO TITLE "Nardis" REM REPLAYGAIN_TRACK_GAIN -2.23 dB REM REPLAYGAIN_TRACK_PEAK 0.902496 INDEX 00 04:31:37
FILE "07 Nardis.flac" WAVE INDEX 01 00:00:00 TRACK 08 AUDIO TITLE "Turn Out Of The Stars" REM REPLAYGAIN_TRACK_GAIN -4.47 dB REM REPLAYGAIN_TRACK_PEAK 0.881226 INDEX 00 08:45:71
FILE "08 Turn Out Of The Stars.flac" WAVE INDEX 01 00:00:00 TRACK 09 AUDIO TITLE "Five" REM REPLAYGAIN_TRACK_GAIN -5.43 dB REM REPLAYGAIN_TRACK_PEAK 0.921814 INDEX 00 05:00:41
FILE "09 Five.flac" WAVE INDEX 01 00:00:00
Приватный:
Нет (DHT включён)
Размер:
276.05 Мб (289,454,188 байт) » файлов: 16
Участники:
0 раздают, 0 качают (0 участников всего)
Внешние участники:
28 раздают, 9 качают (37 участников всего) [ Обновить ]
Скорость:
Торрент не зарегистрирован на трекере
00:47
81
RSS
Нет комментариев. Ваш будет первым!