Поиск

1967 (2006) Cannonball Adderley - Why Am I Treated So Bad!

1967 (2006) Cannonball Adderley - Why Am I Treated So Bad!
Стили:
Страна-производитель диска (релиза):
USA
Дата записи диска:
6 марта 1967
Дата издания диска:
1967
Дата переиздания диска:
2006
Номер по каталогу:
0946 3 56314 2 5
Носитель:
CD
Битрейт аудио:
lossless
Аудиокодек:
FLAC (*.flac)
Тип рипа:
tracks+.cue
Время звучания:
60:56
Наличие сканов:
  • да
Релизёр (источник):
mironov_ad
Состав:
  • Nat Adderley — cornet
  • Cannonball Adderley — alto saxophone
  • Joe Zawinul — piano, electric piano
  • Victor Gaskin — bass
  • Roy McCurdy — drums
  • David Axelrod — producer

01. Introduction 0:13
02. Mini Mama (Fuller) 6:41
03. I'm on My Way (Adderley)7:49
04. Why Am I Treated So Bad (Staples) 7:47
05. One for Newk (Zawinul) 5:15
06. Yvette (Zawinul) 2:21
07. The Other Side (Adderley) 9:04
08. The Scene (Adderley, Zawinul) 2:39
09. Heads Up! Feet Down! (Heath) 7:00
10. The Girl Next Door (Blane, Martin) 12:07

Лог создания рипа
EAC extraction logfile from 24. July 2006, 20:48 for CD
Cannonball Adderley / Why Am I Treated So Bad!
Used drive : PLEXTOR CD-R PX-W4824A Adapter: 1 ID: 0
Read mode : Secure with NO C2, accurate stream, disable cache
Read offset correction : 98
Overread into Lead-In and Lead-Out : Yes
Used output format : C:\Program Files\Exact Audio Copy\flac.exe (User Defined Encoder)
320 kBit/s
Additional command line options : -8 -V -T "artist=%a" -T "title=%t" -T "album=%g" -T "date=%y" -T "tracknumber=%n" -T "genre=%m" -T "comment=EAC Flac 1.1.2a -8" %s
Other options :
Fill up missing offset samples with silence : Yes
Delete leading and trailing silent blocks : No
Native Win32 interface for Win NT & 2000
Track 1
Filename F:\uTorrent\New Rips\Cannonball Adderley - Why Am I Treated So Bad! (1967) [FLAC]\01 - Introduction.wav
Pre-gap length 0:00:02.00
Peak level 72.4 %
Track quality 100.0 %
Test CRC 81E23ABA
Copy CRC 81E23ABA
Copy OK
Track 2
Filename F:\uTorrent\New Rips\Cannonball Adderley - Why Am I Treated So Bad! (1967) [FLAC]\02 - Mini Mama.wav
Peak level 98.9 %
Track quality 100.0 %
Test CRC 9CDE846F
Copy CRC 9CDE846F
Copy OK
Track 3
Filename F:\uTorrent\New Rips\Cannonball Adderley - Why Am I Treated So Bad! (1967) [FLAC]\03 - I'm On My Way.wav
Peak level 98.9 %
Track quality 99.9 %
Test CRC 5AED860C
Copy CRC 5AED860C
Copy OK
Track 4
Filename F:\uTorrent\New Rips\Cannonball Adderley - Why Am I Treated So Bad! (1967) [FLAC]\04 - Why Am I Treated So Bad.wav
Peak level 98.9 %
Track quality 100.0 %
Test CRC 606513A7
Copy CRC 606513A7
Copy OK
Track 5
Filename F:\uTorrent\New Rips\Cannonball Adderley - Why Am I Treated So Bad! (1967) [FLAC]\05 - One For Newk.wav
Peak level 98.9 %
Track quality 100.0 %
Test CRC 48D83EA3
Copy CRC 48D83EA3
Copy OK
Track 6
Filename F:\uTorrent\New Rips\Cannonball Adderley - Why Am I Treated So Bad! (1967) [FLAC]\06 - Yvette.wav
Peak level 98.9 %
Track quality 100.0 %
Test CRC 74D5D5B8
Copy CRC 74D5D5B8
Copy OK
Track 7
Filename F:\uTorrent\New Rips\Cannonball Adderley - Why Am I Treated So Bad! (1967) [FLAC]\07 - The Other Side.wav
Peak level 96.7 %
Track quality 99.9 %
Test CRC 3972C304
Copy CRC 3972C304
Copy OK
Track 8
Filename F:\uTorrent\New Rips\Cannonball Adderley - Why Am I Treated So Bad! (1967) [FLAC]\08 - The Scene.wav
Peak level 98.9 %
Track quality 100.0 %
Test CRC ECEEAAB9
Copy CRC ECEEAAB9
Copy OK
Track 9
Filename F:\uTorrent\New Rips\Cannonball Adderley - Why Am I Treated So Bad! (1967) [FLAC]\09 - Heads Up! Feet Down!.wav
Peak level 98.9 %
Track quality 100.0 %
Test CRC 00A9E86B
Copy CRC 00A9E86B
Copy OK
Track 10
Filename F:\uTorrent\New Rips\Cannonball Adderley - Why Am I Treated So Bad! (1967) [FLAC]\10 - The Girl Next Door.wav
Peak level 98.9 %
Track quality 99.9 %
Test CRC EF500BA7
Copy CRC EF500BA7
Copy OK
No errors occured
End of status report
Приватный:
Нет (DHT включён)
Размер:
388.58 Мб (407,457,797 байт) » файлов: 19
Участники:
0 раздают, 0 качают (0 участников всего)
Внешние участники:
2 раздают, 1 качают (3 участников всего) [ Обновить ]
15:58
120
RSS
Нет комментариев. Ваш будет первым!