Поиск

1967 (1998) Miles Davis - Sorcerer

1967 (1998) Miles Davis - Sorcerer
Страна-производитель диска (релиза):
USA
Дата записи диска:
21 августа 1962 & 24 мая 1967
Дата издания диска:
1967
Дата переиздания диска:
1998
Издатель (лейбл):
Номер по каталогу:
CK 65680
Носитель:
CD
Битрейт аудио:
lossless
Аудиокодек:
FLAC (*.flac)
Тип рипа:
tracks+.cue
Время звучания:
53:07
Наличие сканов:
  • да
Состав:
  • Chris Albertson Liner Notes
  • Willie Bobo Bongos
  • Ron Carter Bass
  • Paul Chambers Bass
  • Jimmy Cobb Drums
  • Miles Davis Trumpet
  • Bob Dorough Composer, Vocals
  • Gil Evans Arranger
  • Herbie Hancock Composer, Keyboards, Piano
  • Frank Laico Engineer
  • Teo Macero Producer
  • Fred Plaut Engineer
  • Frank Rehak Trombone
  • Wayne Shorter Composer, Sax (Tenor), Saxophone
  • John Synder Producer
  • Stanley Tonkel Engineer
  • Irving Townsend Producer
  • Buster Williams Bass
  • Tony Williams Composer, Drums
01. Prince of Darkness (6:29)
02. Pee Wee (4:49)
03. Masqualero (8:54)
04. The Sorcerer (5:12)
05. Limbo (7:17)
06. Vonetta (5:37)
07. Nothing Like You (2:01)
08. Masqualero (7:06)
09. Limbo (5:27)
Лог создания рипа
EAC extraction logfile from 8. January 2007, 20:26 for CD
Miles Davis / Sorcerer
Used drive : _NEC DVD+-RW ND-6450A Adapter: 1 ID: 0
Read mode : Secure with NO C2, accurate stream, disable cache
Read offset correction : 48
Overread into Lead-In and Lead-Out : No
Used output format : Internal WAV Routines
44.100 Hz; 16 Bit; Stereo
Other options :
Fill up missing offset samples with silence : Yes
Delete leading and trailing silent blocks : No
Installed external ASPI interface
Track 1
Filename C:\Documents and Settings\user\Documenti\file flac\01Prince of Darkness.wav
Pre-gap length 0:00:02.00
Peak level 100.0 %
Track quality 100.0 %
Test CRC 51CF2F57
Copy CRC 51CF2F57
Copy OK
Track 2
Filename C:\Documents and Settings\user\Documenti\file flac\02Pee Wee.wav
Pre-gap length 0:00:02.77
Peak level 79.5 %
Track quality 100.0 %
Test CRC 282CE2C6
Copy CRC 282CE2C6
Copy OK
Track 3
Filename C:\Documents and Settings\user\Documenti\file flac\03Masqualero.wav
Pre-gap length 0:00:02.60
Peak level 100.0 %
Track quality 100.0 %
Test CRC BCC7C2BE
Copy CRC BCC7C2BE
Copy OK
Track 4
Filename C:\Documents and Settings\user\Documenti\file flac\04The Sorcerer.wav
Pre-gap length 0:00:02.06
Peak level 99.5 %
Track quality 100.0 %
Test CRC 1989C9CC
Copy CRC 1989C9CC
Copy OK
Track 5
Filename C:\Documents and Settings\user\Documenti\file flac\05Limbo.wav
Pre-gap length 0:00:02.06
Peak level 100.0 %
Track quality 100.0 %
Test CRC 0F54F083
Copy CRC 0F54F083
Copy OK
Track 6
Filename C:\Documents and Settings\user\Documenti\file flac\06Vonetta.wav
Pre-gap length 0:00:02.02
Peak level 100.0 %
Track quality 100.0 %
Test CRC 0DD1812D
Copy CRC 0DD1812D
Copy OK
Track 7
Filename C:\Documents and Settings\user\Documenti\file flac\07Nothing Like You.wav
Pre-gap length 0:00:02.60
Peak level 57.3 %
Track quality 100.0 %
Test CRC F01E5584
Copy CRC F01E5584
Copy OK
Track 8
Filename C:\Documents and Settings\user\Documenti\file flac\08Masqualero (Alternate Take).wav
Pre-gap length 0:00:01.70
Peak level 100.0 %
Track quality 100.0 %
Test CRC A821AA6B
Copy CRC A821AA6B
Copy OK
Track 9
Filename C:\Documents and Settings\user\Documenti\file flac\09Limbo (Alternate Take).wav
Pre-gap length 0:00:02.40
Peak level 100.0 %
Track quality 100.0 %
Test CRC 92AF453D
Copy CRC 92AF453D
Copy OK
No errors occured
End of status report
------------------------------------------------------------
Приватный:
Нет (DHT включён)
Размер:
332.06 Мб (348,189,745 байт) » файлов: 24
Участники:
0 раздают, 0 качают (0 участников всего)
Внешние участники:
8 раздают, 2 качают (10 участников всего) [ Обновить ]
12:55
180
RSS
Нет комментариев. Ваш будет первым!