Поиск

1967 (1996) Wynton Kelly - Full View {Original Jazz Classics OJCCD-912-2}

1967 (1996) Wynton Kelly - Full View {Original Jazz Classics OJCCD-912-2}
Страна-производитель диска (релиза):
USA
Дата записи диска:
2-30 сентября 1966
Дата издания диска:
1967
Дата переиздания диска:
1996
Номер по каталогу:
OJCCD-912-2
Носитель:
CD
Битрейт аудио:
lossless
Аудиокодек:
FLAC (*.flac)
Тип рипа:
tracks
Время звучания:
37:01
Наличие сканов:
  • да
Релизёр (источник):
AlexMachen
Треклист:

01 - I Want a Little Girl (4:47)
02 - I Thought (4:58)
03 - What a Diff'rence a Day Made (4:53)
04 - Autumn Leaves (3:57)
05 - Dont' cha Hear Me Callin' to Ya (4:31)
06 - On a Clear Day (You Can See Forever) (3:18)
07 - Scufflin' (3:08)
08 - Born to Be Blue (4:12)
09 - Walk On By (3:17)

Состав:
  • Elvin Campbell Engineer
  • Jimmy Cobb Drums
  • Orrin Keepnews Liner Notes, Producer
  • Wynton Kelly Composer, Piano
  • Ron McClure Bass

Записано в Plaza Sound Studios, New York, NY

Лог создания рипа
EAC extraction logfile from 19. March 2007, 18:34 for CD
Wynton Kelly / Full View

Used drive : HL-DT-STDVDRAM GSA-4163B Adapter: 1 ID: 1
Read mode : Secure with NO C2, accurate stream, disable cache
Read offset correction : 667
Overread into Lead-In and Lead-Out : No

Used output format : Internal WAV Routines
44.100 Hz; 16 Bit; Stereo

Other options :
Fill up missing offset samples with silence : Yes
Delete leading and trailing silent blocks : No
Installed external ASPI interface

Track 1
Filename E:\Audio\Wynton Kelly - Full View\01 - I Want a Little Girl.wav

Pre-gap length 0:00:02.00

Peak level 80.9 %
Track quality 99.9 %
Test CRC CEB94B4D
Copy CRC CEB94B4D
Copy OK

Track 2
Filename E:\Audio\Wynton Kelly - Full View\02 - I Thought.wav

Pre-gap length 0:00:03.31

Peak level 86.6 %
Track quality 100.0 %
Test CRC EF615DAE
Copy CRC EF615DAE
Copy OK

Track 3
Filename E:\Audio\Wynton Kelly - Full View\03 - What a Diff'rence a Day Made.wav

Pre-gap length 0:00:03.63

Peak level 81.4 %
Track quality 100.0 %
Test CRC D3A46293
Copy CRC D3A46293
Copy OK

Track 4
Filename E:\Audio\Wynton Kelly - Full View\04 - Autumn Leaves.wav

Pre-gap length 0:00:03.01

Peak level 100.0 %
Track quality 100.0 %
Test CRC 4A1BADF8
Copy CRC 4A1BADF8
Copy OK

Track 5
Filename E:\Audio\Wynton Kelly - Full View\05 - Dont' cha Hear Me Callin' to Ya.wav

Pre-gap length 0:00:03.34

Peak level 86.1 %
Track quality 100.0 %
Test CRC D707FE3A
Copy CRC D707FE3A
Copy OK

Track 6
Filename E:\Audio\Wynton Kelly - Full View\06 - On a Clear Day (You Can See Forever).wav

Pre-gap length 0:00:04.01

Peak level 86.7 %
Track quality 100.0 %
Test CRC 68B3AE2C
Copy CRC 68B3AE2C
Copy OK

Track 7
Filename E:\Audio\Wynton Kelly - Full View\07 - Scufflin'.wav

Pre-gap length 0:00:04.00

Peak level 90.4 %
Track quality 100.0 %
Test CRC 4A7345E4
Copy CRC 4A7345E4
Copy OK

Track 8
Filename E:\Audio\Wynton Kelly - Full View\08 - Born to Be Blue.wav

Pre-gap length 0:00:03.60

Peak level 80.6 %
Track quality 100.0 %
Test CRC 542B0540
Copy CRC 542B0540
Copy OK

Track 9
Filename E:\Audio\Wynton Kelly - Full View\09 - Walk On By.wav

Pre-gap length 0:00:03.74

Peak level 89.1 %
Track quality 100.0 %
Test CRC 98E6F4F7
Copy CRC 98E6F4F7
Copy OK

No errors occured

End of status report
Приватный:
Нет (DHT включён)
Размер:
214.19 Мб (224,597,698 байт) » файлов: 16
Участники:
0 раздают, 0 качают (0 участников всего)
Внешние участники:
3 раздают, 1 качают (4 участников всего) [ Обновить ]
14:06
71
RSS
Нет комментариев. Ваш будет первым!