Поиск

1966 Cannonball Adderly - Swingin' in Seattle: Live at the Penthouse 1966-1967 (2019) {Real To Reel} [24-96]

1966 Cannonball Adderly - Swingin' in Seattle: Live at the Penthouse 1966-1967 (2019) {Real To Reel} [24-96]
Треклист:

01. Jim Wilke Introduction (00:13)
02. Big P (08:49)
03. Spoken Outro (00:24)
04. Spoken Introduction (00:14)
05. The Girl Next Door (11:10)
06. Spoken Introduction (00:48)
07. Sticks (04:33)
08. Spoken Outro (00:06)
09. Spoken Introduction (00:12)
10. The Morning of the Carnival (10:44)
11. Spoken Outro (00:12)
12. Spoken Introduction (00:34)
13. Somewhere (05:04)
14. Jim Wilke Introduction (00:16)
15. 74 Miles Away (10:38)
16. Spoken Outro (00:31)
17. Back Home Blues (06:46)
18. Hippodelphia (10:44)
19. Set-Closing Outro (00:57)

Состав:
  • Julian 'Cannonball' Adderley, alto saxophone
  • Nat Adderley, cornet
  • Joe Zawinul, piano
  • Victor Gaskin, double bass
  • Roy McCurdy, drums

Формат записи/Источник записи: [TR24][OF]
Наличие водяных знаков: Нет
Издание: Remastered
Год издания/переиздания диска: 1966-1967/2019
Жанр: Jazz
Издатель (лейбл): Real To Reel Recordings
Продолжительность: 01:12:55
Наличие сканов в содержимом раздачи: Буклет PDF
Контейнер: FLAC (*.flac)
Тип рипа: tracks
Разрядность: 24/96
Формат: PCM
Количество каналов: 2.0
Источник (релизер): highresaudio.com

Лог проверки качества
foobar2000 1.4 / Dynamic Range Meter 1.1.1
log date: 2019-01-27 12:29:23

--------------------------------------------------------------------------------
Analyzed: Cannonball Adderley / Swingin' in Seattle: Live at the Penthouse 1966-1967 (Remastered) (1-17)
          Jim Wilke / Swingin' in Seattle: Live at the Penthouse 1966-1967 (Remastered) (18-19)
--------------------------------------------------------------------------------

DR         Peak         RMS     Duration Track
--------------------------------------------------------------------------------
DR10      -0.30 dB   -12.05 dB      8:50 02-Big P
DR17      -0.57 dB   -21.98 dB      0:25 03-Spoken Outro
DR13      -0.32 dB   -19.09 dB      0:15 04-Spoken Introduction
DR11      -0.30 dB   -13.80 dB     11:11 05-The Girl Next Door
DR17      -3.30 dB   -23.32 dB      0:48 06-Spoken Introduction
DR10      -0.30 dB   -11.26 dB      4:33 07-Sticks
DR16      -7.57 dB   -26.94 dB      0:07 08-Spoken Outro
DR11      -3.51 dB   -19.99 dB      0:12 09-Spoken Introduction
DR10      -0.30 dB   -11.86 dB     10:44 10-The Morning of the Carnival
DR12      -2.22 dB   -19.15 dB      0:13 11-Spoken Outro
DR13      -5.61 dB   -23.59 dB      0:34 12-Spoken Introduction
DR11      -0.30 dB   -15.62 dB      5:04 13-Somewhere
DR9       -0.30 dB   -11.86 dB     10:39 15-74 Miles Away
DR14      -8.10 dB   -26.56 dB      0:31 16-Spoken Outro
DR10      -0.31 dB   -12.19 dB      6:47 17-Back Home Blues
DR10      -0.30 dB   -11.47 dB     10:45 18-Hippodelphia
DR10      -0.30 dB   -12.06 dB      0:57 19-Set-Closing Outro
DR13      -3.55 dB   -19.80 dB      0:12 01-Jim Wilke Introduction
DR12      -0.31 dB   -14.69 dB      0:17 14-Jim Wilke Introduction
--------------------------------------------------------------------------------

Number of tracks:  19
Official DR value: DR12
Samplerate:        96000 Hz
Channels:          2
Bits per sample:   24
Bitrate:           2567 kbps
Codec:             FLAC
================================================================================
Download available for power users only.
05:13
471
Нет комментариев. Ваш будет первым!