Поиск

1966 (1998) Miles Davis Quintet - Miles Smiles

1966 (1998) Miles Davis Quintet - Miles Smiles
Страна-производитель диска (релиза):
USA
Дата записи диска:
24-25 октября 1966
Дата издания диска:
1966
Дата переиздания диска:
1998
Издатель (лейбл):
Номер по каталогу:
65682
Носитель:
CD
Аудиокодек:
FLAC (*.flac)
Тип рипа:
tracks+.cue
Битрейт аудио:
1
Время звучания:
41:22
Релизёр (источник):
xramirez
Треклист:
01. Orbits (4:35)
02. Circle (5:52)
03. Footprints (9:44)
04. Dolores (6:20)
05. Freedom Jazz Dance (7:11)
06. Gingerbread Boy (7:40)
Лог создания рипа
EAC extraction logfile from 9. January 2007, 22:14 for CD
Miles Davis Quintet / Miles Smiles
Used drive : _NEC DVD+-RW ND-6450A Adapter: 1 ID: 0
Read mode : Secure with NO C2, accurate stream, disable cache
Read offset correction : 48
Overread into Lead-In and Lead-Out : No
Used output format : Internal WAV Routines
44.100 Hz; 16 Bit; Stereo
Other options :
Fill up missing offset samples with silence : Yes
Delete leading and trailing silent blocks : No
Installed external ASPI interface
Track 1
Filename C:\Documents and Settings\user\Documenti\file flac\01Orbits.wav
Pre-gap length 0:00:02.00
Peak level 90.5 %
Track quality 100.0 %
Test CRC 6231EAAB
Copy CRC 6231EAAB
Copy OK
Track 2
Filename C:\Documents and Settings\user\Documenti\file flac\02Circle.wav
Pre-gap length 0:00:02.53
Peak level 79.4 %
Track quality 100.0 %
Test CRC 2C2A3E07
Copy CRC 2C2A3E07
Copy OK
Track 3
Filename C:\Documents and Settings\user\Documenti\file flac\03Footprints.wav
Pre-gap length 0:00:02.50
Peak level 92.3 %
Track quality 100.0 %
Test CRC 1AFB4B26
Copy CRC 1AFB4B26
Copy OK
Track 4
Filename C:\Documents and Settings\user\Documenti\file flac\04Dolores.wav
Pre-gap length 0:00:02.53
Peak level 89.3 %
Track quality 100.0 %
Test CRC A9AE5CF6
Copy CRC A9AE5CF6
Copy OK
Track 5
Filename C:\Documents and Settings\user\Documenti\file flac\05Freedom Jazz Dance.wav
Pre-gap length 0:00:02.50
Peak level 99.5 %
Track quality 99.9 %
Test CRC 556091E9
Copy CRC 556091E9
Copy OK
Track 6
Filename C:\Documents and Settings\user\Documenti\file flac\06Gingerbread Boy.wav
Pre-gap length 0:00:02.50
Peak level 79.7 %
Track quality 100.0 %
Test CRC D9F1D35E
Copy CRC D9F1D35E
Copy OK
No errors occured
End of status report
Скачивание доступно после регистрации!!
Приватный:
Нет (DHT включён)
Размер:
277.39 Мб (290,861,466 байт) » файлов: 21
Участники:
0 раздают, 0 качают (0 участников всего)
Внешние участники:
5 раздают, 1 качают (6 участников всего) [ Обновить ]
02:34
275
Нет комментариев. Ваш будет первым!