Поиск

1966 (1995) Cannonball Adderley - Mercy, Mercy, Mercy!: Live at "The Club"

1966 (1995) Cannonball Adderley - Mercy, Mercy, Mercy!: Live at "The Club"
Страна-производитель диска (релиза):
Holland
Дата записи диска:
20 октября 1966
Дата издания диска:
февраль 1967
Дата переиздания диска:
1995
Номер по каталогу:
CDP 7243 8 29915 2
Носитель:
CD
Битрейт аудио:
lossless
Аудиокодек:
FLAC (*.flac)
Тип рипа:
tracks+.cue
Время звучания:
40:04
Наличие сканов:
  • да
Релизёр (источник):
mironov_ad
Треклист:
  1. Fun (composer: Nat Adderley 7:33)
  2. Games (composer: Nat Adderley 8:03)
  3. Mercy, Mercy, Mercy (composer: Josef Zawinul 5:07)
  4. Sticks (composer: Julian Adderley 3:53)
  5. Hippodelphia (composer: Josef Zawinul 5:43)
  6. Sack O'Woe (composer: Julian Adderley 10:45)
Состав:
EAC extraction logfile from 27. November 2005, 20:31 for CD
Cannonball Adderley / Mercy, Mercy, Mercy! Live at "The Club"
Used drive : PLEXTOR DVDR PX-712A Adapter: 1 ID: 0
Read mode : Secure with NO C2, accurate stream, disable cache
Read offset correction : 30
Overread into Lead-In and Lead-Out : Yes
Used output format : Internal WAV Routines
44.100 Hz; 16 Bit; Stereo
Other options :
Fill up missing offset samples with silence : Yes
Delete leading and trailing silent blocks : No
Native Win32 interface for Win NT & 2000
Track 1
Filename G:\Flac\Mercy\01 - Fun.wav
Pre-gap length 0:00:02.00
Peak level 92.7 %
Track quality 100.0 %
Test CRC 8781B6AB
Copy CRC 8781B6AB
Copy OK
Track 2
Filename G:\Flac\Mercy\02 - Games.wav
Peak level 92.7 %
Track quality 100.0 %
Test CRC 6F500E43
Copy CRC 6F500E43
Copy OK
Track 3
Filename G:\Flac\Mercy\03 - Mercy, Mercy, Mercy.wav
Peak level 92.7 %
Track quality 100.0 %
Test CRC FD82032F
Copy CRC FD82032F
Copy OK
Track 4
Filename G:\Flac\Mercy\04 - Sticks.wav
Peak level 92.7 %
Track quality 99.9 %
Test CRC 5118DB0C
Copy CRC 5118DB0C
Copy OK
Track 5
Filename G:\Flac\Mercy\05 - Hippodelphia.wav
Peak level 92.7 %
Track quality 100.0 %
Test CRC D7DC8FE0
Copy CRC D7DC8FE0
Copy OK
Track 6
Filename G:\Flac\Mercy\06 - Sack O' Woe.wav
Peak level 92.7 %
Track quality 100.0 %
Test CRC 567D0374
Copy CRC 567D0374
Copy OK
No errors occured
End of status report
22:22
47
RSS
Нет комментариев. Ваш будет первым!