Поиск

1965 (2000) Wayne Shorter - The All Seeing Eye

1965 (2000) Wayne Shorter - The All Seeing Eye
Страна-производитель диска (релиза):
USA
Дата записи диска:
15 октября 1965
Дата издания диска:
1965
Дата переиздания диска:
12 сентября 2000
Номер по каталогу:
7243 5 24543 2 7
Носитель:
CD
Битрейт аудио:
lossless
Аудиокодек:
FLAC (*.flac)
Тип рипа:
tracks+.cue
Время звучания:
44:21
Наличие сканов:
  • да
Релизёр (источник):
ordo
Треклист:

01. All Seeing Eye (10:32)
02. Genesis (11:44)
03. Chaos (6:55)
04. Face of the Deep (5:29)
05. Mephistopheles (9:39)[/color]

Состав:
  • Wayne Shorter (tenor saxophone);
  • James Spaulding (alto saxophone);
  • Freddie Hubbard (trumpet, flugelhorn);
  • Alan Shorter (flugelhorn);
  • Grachan Moncur III (trombone);
  • Herbie Hancock (piano);
  • Ron Carter (acoustic bass);
  • Joe Chambers (drums).
  • Producer: Alfred Lion.
  • Reissue producer: Michael Cuscuna


Recorded at the Van Gelder Studio, Englewood Cliffs, New Jersey on October 15, 1965. Originally released on Blue Note (4219). Includes liner notes by Nat Hentoff and Bob Blumenthal.

Digitally remastered using 24-bit technology by Rudy Van Gelder (2000, Van Gelder Studio, Englewood Cliffs, New Jersey).

This is part of the Blue Note Rudy Van Gelder Editions series.
Лог создания рипа
Exact Audio Copy V0.99 prebeta 3 from 28. July 2007
Отчёт EAC об извлечении, выполненном 18. ноября 2008, 15:56
Wayne Shorter / The All Seeing Eye {RVG Edition}
Дисковод: HL-DT-STDVDRAM GSA-4167B Adapter: 0 ID: 0
Режим чтения : Достоверность
Использование точного потока : Да
Отключение кэша аудио : Да
Использование указателей C2 : Нет
Коррекция смещения при чтении : 667
Способность читать области Lead-in и Lead-out : Нет
Заполнение пропущенных сэмплов тишиной : Да
Удаление блоков с тишиной в начале и конце : Нет
При вычислениях CRC использовались нулевые сэмплы : Да
Интерфейс : Встроенный Win32-интерфейс для Win NT/2000
Обработка зазоров : Добавлено к предыдущему треку
Выходной формат : Пользовательский кодировщик
Выбранный битрейт : 768 kBit/s
Качество : Высокий
Добавление ID3-тэга : Да
Утилита сжатия : C:\Program Files\Exact Audio Copy\Flac\flac.exe
Дополнительные параметры : -8 -V -T "artist=%a" -T "title=%t" -T "album=%g" -T "date=%y" -T "tracknumber=%n" -T "genre=%m" -T "comment=ordo" -5 %s
TOC извлечённого CD
Трек | Старт | Длительность | Начальный сектор | Конечный сектор
---------------------------------------------------------------------
1 | 0:00.00 | 10:32.58 | 0 | 47457
2 | 10:32.58 | 11:44.40 | 47458 | 100297
3 | 22:17.23 | 6:55.30 | 100298 | 131452
4 | 29:12.53 | 5:29.44 | 131453 | 156171
5 | 34:42.22 | 9:39.48 | 156172 | 199644
Трек 1
Имя файла G:\Muzlo\JAZZ\BIG JAZZ\RIPER-CUTTER\01 - The All Seeing Eye.wav
Длина предзазора 0:00:02.00
Пиковый уровень 97.9 %
Качество трека 100.0 %
CRC копии 643607AC
Точное извлечение (достоверность 9) [78015B85]
Копирование... OK
Трек 2
Имя файла G:\Muzlo\JAZZ\BIG JAZZ\RIPER-CUTTER\02 - Genesis.wav
Длина предзазора 0:00:01.64
Пиковый уровень 97.9 %
Качество трека 100.0 %
CRC копии EF5938E2
Точное извлечение (достоверность 10) [1B40E633]
Копирование... OK
Трек 3
Имя файла G:\Muzlo\JAZZ\BIG JAZZ\RIPER-CUTTER\03 - Chaos.wav
Длина предзазора 0:00:02.13
Пиковый уровень 97.9 %
Качество трека 99.9 %
CRC копии FB070548
Точное извлечение (достоверность 10) [8890EED0]
Копирование... OK
Трек 4
Имя файла G:\Muzlo\JAZZ\BIG JAZZ\RIPER-CUTTER\04 - Face of the Deep.wav
Длина предзазора 0:00:00.68
Пиковый уровень 89.2 %
Качество трека 100.0 %
CRC копии 3E48AA27
Точное извлечение (достоверность 10) [6B4C7CDF]
Копирование... OK
Трек 5
Имя файла G:\Muzlo\JAZZ\BIG JAZZ\RIPER-CUTTER\05 - Mephistopheles.wav
Длина предзазора 0:00:02.05
Пиковый уровень 97.9 %
Качество трека 100.0 %
CRC копии 53069464
Точное извлечение (достоверность 10) [6FB61F97]
Копирование... OK
Все треки извлечены точно
Ошибок не произошло
Конец отчёта
Приватный:
Нет (DHT включён)
Размер:
261.98 Мб (274,705,234 байт) » файлов: 17
Участники:
0 раздают, 0 качают (0 участников всего)
Внешние участники:
8 раздают, 2 качают (10 участников всего) [ Обновить ]
16:13
101
RSS
Нет комментариев. Ваш будет первым!