Поиск

1965 (2000) John Coltrane - Ascension {Impulse! 543 413-2}

1965 (2000) John Coltrane - Ascension {Impulse! 543 413-2}
Страна-производитель диска (релиза):
USA
Дата записи диска:
28 июня 1965
Дата издания диска:
1965
Дата переиздания диска:
2000
Номер по каталогу:
543 413-2
Носитель:
CD
Битрейт аудио:
lossless
Аудиокодек:
FLAC (*.flac)
Тип рипа:
image+.cue
Время звучания:
79:27.35
Наличие сканов:
  • нет
Релизёр (источник):
hihway61

Состав:

 

Original recordings produced by Bob Thiele
Original-LP cover photograph by Chuck Stewart
Recorded June 1965 at Van Gelder Recording Studio, New Jersey

1> Ascension - Edition II 40:23
2> Ascension - Edition I 38:31

Лог создания рипа
Отчёт EAC об извлечении, выполненном 28. марта 2007, 0:01 для диска:
John Coltrane / Ascension

Дисковод: Optiarc DVD RW AD-7173A Adapter: 0 ID: 1
Режим чтения: Достоверный (C2: нет, Точный поток: да, Отключение кэша: да)
Коррекция смещения при чтении: 48
Способность читать области Lead-in и Lead-out : Нет

Выходной формат: Внутренние WAV-операции
44.100 Гц; 16 бит; стерео

Другие параметры:
Заполнение пропущенных сэмплов тишиной : Да
Удаление блоков с тишиной в начале и конце : Нет
Встроенный Win32-интерфейс для Win NT/2000

Характеристики диапазона извлечения и сообщения об ошибках
Выбранный диапазон
Имя файла C:\Coltrane - Ascension\John Coltrane - Ascension.wav

Пиковый уровень 100.0 %
Качество диапазона 100.0 %
CRC 87E85D1B
Копирование... OK

Ошибок не произошло

Конец отчёта
Лог проверки качества
[CUETools log; Date: 12.10.2011 10:59:14; Version: 2.1.1]
[CTDB TOCID: JHHbjlZCf.gwHGrS2N3eYuTgMdk-] found.
        [ CTDBID ] Status
        [2ca426cd] (1/1) No match
[AccurateRip ID: 0008447c-0015fdb1-15129f02] found.
Track   [ CRC    ] Status
 01     [4203f3e7] (11/72) Accurately ripped
 02     [a2703048] (11/55) Accurately ripped
Offsetted by -18:
 01     [868a61e9] (04/72) Accurately ripped
 02     [621d81de] (02/55) Accurately ripped
Offsetted by 10:
 01     [bafb3f10] (11/72) Accurately ripped
 02     [8ffaf0bd] (08/55) Accurately ripped

Track Peak [ CRC32  ] [W/O NULL]
 --   99,9 [87E85D1B] [6E400BE0]
 01   99,9 [9CE5055D] [AD4647ED]
 02   99,9 [9E6722EB] [30948507]
Приватный:
Нет (DHT включён)
Размер:
583.05 Мб (611,374,754 байт) » файлов: 3
Участники:
0 раздают, 0 качают (0 участников всего)
Внешние участники:
5 раздают, 1 качают (6 участников всего) [ Обновить ]
12:48
106
RSS
Нет комментариев. Ваш будет первым!