Поиск

1965 (1990) Miles Davis - E.S.P.

1965 (1990) Miles Davis - E.S.P.
Страна-производитель диска (релиза):
USA
Дата записи диска:
20-22 января 1965
Дата издания диска:
ноябрь 1965
Дата переиздания диска:
1990
Издатель (лейбл):
Номер по каталогу:
46863
Носитель:
CD
Битрейт аудио:
lossless
Аудиокодек:
FLAC (*.flac)
Тип рипа:
tracks
Время звучания:
48:05
Наличие сканов:
  • да
Релизёр (источник):
xramirez
Треклист:
01. E.S.P. (5:27)
02. Eighty-One (6:11)
03. Little One (7:21)
04. R.J. (3:56)
05. Agitation (7:46)
06. Iris (8:29)
07. Mood (8:50)
Состав:
  • Bob Belden Liner Notes, Reissue Producer
  • Ron Carter Bass, Composer
  • Michael Cuscuna Reissue Producer
  • Miles Davis Composer, Trumpet
  • Herbie Hancock Composer, Piano
  • Gene Santoro Liner Notes
  • Wayne Shorter Composer, Sax (Tenor)
  • Irving Townsend Original Recording Producer, Producer
  • Tony Williams Drums
Об альбоме (сборнике):
Об альбоме (сборнике)
1965 год — со времени выхода Sketches of Spain — последнего на тот момент оригинального альбома Дэвиса прошло 6 лет за которые мир джаза претерпел серьезные изменения. Появилось много новых интересных имен двинувших джазовую музыку к новым рубежам в то время, как Майлз в эти годы, по мнению многих, все чаще обращался к проверенным ходам и эксплуатировал стандарты. Однако скептики было посрамлены, когда Дэвис, собрав свой второй классический квинтет с пианистом Херби Хэнкоком, саксофонистом Уэйном Шортером, басистом Роном Картером и ударником Тони Вильямсом, выпустил E.S.P… Весь материал был написан исключительно музыкантами коллектива. Балансируя на грани хард-бопа и авангарда, квинтет записал один из своих лучших альбомов.
Лог создания рипа
EAC extraction logfile from 7. January 2007, 23:45 for CD
Miles Davis / E.S.P.
Used drive : _NEC DVD+-RW ND-6450A Adapter: 1 ID: 0
Read mode : Secure with NO C2, accurate stream, disable cache
Read offset correction : 48
Overread into Lead-In and Lead-Out : No
Used output format : C:\Programmi\FLAC\flac.exe (User Defined Encoder)
320 kBit/s
Additional command line options : -V --replay-gain -8 -T "artist=%a" -T "title=%t" -T "album=%g" -T "date=%y" -T "tracknumber=%n" -T "genre=%m" %s
Other options :
Fill up missing offset samples with silence : Yes
Delete leading and trailing silent blocks : No
Installed external ASPI interface
Track 1
Filename C:\Documents and Settings\user\Documenti\file flac\01E.S.P..wav
Pre-gap length 0:00:02.00
Peak level 100.0 %
Track quality 100.0 %
Test CRC 27DFF42D
Copy CRC 27DFF42D
Copy OK
Track 2
Filename C:\Documents and Settings\user\Documenti\file flac\02Eighty-One.wav
Pre-gap length 0:00:01.54
Peak level 100.0 %
Track quality 99.9 %
Test CRC 008D691A
Copy CRC 008D691A
Copy OK
Track 3
Filename C:\Documents and Settings\user\Documenti\file flac\03Little One.wav
Pre-gap length 0:00:02.73
Peak level 100.0 %
Track quality 99.9 %
Test CRC DB4FD1E3
Copy CRC DB4FD1E3
Copy OK
Track 4
Filename C:\Documents and Settings\user\Documenti\file flac\04R.J..wav
Pre-gap length 0:00:01.10
Peak level 99.5 %
Track quality 100.0 %
Test CRC 9A961284
Copy CRC 9A961284
Copy OK
Track 5
Filename C:\Documents and Settings\user\Documenti\file flac\05Agitation.wav
Pre-gap length 0:00:01.00
Peak level 100.0 %
Track quality 100.0 %
Test CRC D287FDB8
Copy CRC D287FDB8
Copy OK
Track 6
Filename C:\Documents and Settings\user\Documenti\file flac\06Iris.wav
Pre-gap length 0:00:01.77
Peak level 100.0 %
Track quality 99.9 %
Test CRC CD0EFD27
Copy CRC CD0EFD27
Copy OK
Track 7
Filename C:\Documents and Settings\user\Documenti\file flac\07Mood.wav
Pre-gap length 0:00:01.46
Peak level 100.0 %
Track quality 100.0 %
Test CRC 46C1C58B
Copy CRC 46C1C58B
Copy OK
No errors occured
End of status report
Приватный:
Нет (DHT включён)
Размер:
289.64 Мб (303,706,886 байт) » файлов: 22
Участники:
0 раздают, 0 качают (0 участников всего)
Внешние участники:
5 раздают, 1 качают (6 участников всего) [ Обновить ]
17:37
136
RSS
Нет комментариев. Ваш будет первым!