Поиск

1964 (2006) Dexter Gordon — A Swingin' Affair

1964 (2006) Dexter Gordon — A Swingin' Affair
Страна-производитель диска (релиза):
USA
Дата записи диска:
29 августа 1962
Дата издания диска:
октябрь 1964
Дата переиздания диска:
2006
Номер по каталогу:
0946 3 55501 2 2
Носитель:
CD
Битрейт аудио:
lossless
Аудиокодек:
FLAC (*.flac)
Тип рипа:
tracks+.cue
Время звучания:
38:27
Наличие сканов:
  • да
Релизёр (источник):
CarlV49@demonoid
Треклист:

01. Soy Califa [6:27]
02. Don't Explain [6:06]
03. You Stepped Out Of A Dream [6:34]
04. The Backbone [6:48]
05. (It Will Have To Do) Until The Real Thing Comes.. [6:49]
06. McSplivens [5:43]

Состав:
  • Bob Blumenthal Liner Notes
  • Sonny Clark Piano
  • Michael Cuscuna Reissue Producer
  • Dexter Gordon Composer, Sax (Tenor)
  • Billy Higgins Drums
  • Alfred Lion Producer
  • Barbara Long Liner Notes
  • Rudy Van Gelder Engineer, Remastering
  • Butch Warren Bass


Записано 29 августа 1962 г. в студии Руди Ван Гельдера (Englewood Cliffs, NJ), им же в 2005 произведен ремастеринг.
Dexter Gordon и его квартет записали этот альбом на одном дыхании вместе со ставшим классическим Go!.. A Swingin' Affair включает в себя 2 композиции, сочиненные самим Гордоном, афро-кубинская мелодия Soy Califa и McSplivens, The Backbone Warren'а и 3 стандарта.

Лог создания рипа
<spoiler title="Лог создания рипа"><pre>EAC extraction logfile from 25. July 2007, 6:37 for CD
Dexter Gordon / A Swingin' Affair
Used drive : SONY CD-RW CRX230EE Adapter: 0 ID: 1
Read mode : Secure with NO C2, accurate stream, disable cache
Read offset correction : 6
Overread into Lead-In and Lead-Out : No
Used output format : C:\Utilities\flac\flac-1.1.4-win\bin\flac.exe (User Defined Encoder)
128 kBit/s
Additional command line options : -8 -A tukey(0.25) -A gauss(0.1875) -b 4096 -V -T "artist=%a" -T "title=%t" -T "album=%g" -T "date=%y" -T "tracknumber=%n" -T "genre=%m" %s --sector-align
Other options :
Fill up missing offset samples with silence : Yes
Delete leading and trailing silent blocks : No
Installed external ASPI interface
Track 1
Filename C:\Demonoid\A\Dexter Gordon - A Swingin' Affair\01 - Dexter Gordon - Soy Califa .wav
Pre-gap length 0:00:02.00
Peak level 97.9 %
Track quality 100.0 %
Test CRC B6E5F1D9
Copy CRC B6E5F1D9
Copy OK
Track 2
Filename C:\Demonoid\A\Dexter Gordon - A Swingin' Affair\02 - Dexter Gordon - Don't Explain .wav
Pre-gap length 0:00:02.53
Peak level 97.9 %
Track quality 100.0 %
Test CRC 12271E6F
Copy CRC 12271E6F
Copy OK
Track 3
Filename C:\Demonoid\A\Dexter Gordon - A Swingin' Affair\03 - Dexter Gordon - You Stepped Out Of A Dream .wav
Pre-gap length 0:00:02.22
Peak level 97.9 %
Track quality 100.0 %
Test CRC 44D52948
Copy CRC 44D52948
Copy OK
Track 4
Filename C:\Demonoid\A\Dexter Gordon - A Swingin' Affair\04 - Dexter Gordon - The Backbone .wav
Pre-gap length 0:00:03.52
Peak level 97.9 %
Track quality 100.0 %
Test CRC 84CC5F8F
Copy CRC 84CC5F8F
Copy OK
Track 5
Filename C:\Demonoid\A\Dexter Gordon - A Swingin' Affair\05 - Dexter Gordon - (It Will Have To Do) Until The Real Thing Comes Along .wav
Pre-gap length 0:00:02.26
Peak level 97.9 %
Track quality 100.0 %
Test CRC 3F399964
Copy CRC 3F399964
Copy OK
Track 6
Filename C:\Demonoid\A\Dexter Gordon - A Swingin' Affair\06 - Dexter Gordon - McSplivens .wav
Pre-gap length 0:00:02.34
Peak level 97.9 %
Track quality 99.9 %
Test CRC 4C4B9874
Copy CRC 4C4B9874
Copy OK
No errors occured
End of status report</pre></spoiler>
Приватный:
Нет (DHT включён)
Размер:
273.15 Мб (286,420,552 байт) » файлов: 11
Участники:
0 раздают, 0 качают (0 участников всего)
Внешние участники:
1 раздают, 0 качают (1 участников всего) [ Обновить ]
18:40
113
RSS
Нет комментариев. Ваш будет первым!