Поиск

1964 (1999) Lee Morgan - The Sidewinder

1964 (1999) Lee Morgan - The Sidewinder
Страна-производитель диска (релиза):
USA
Дата записи диска:
21 декабря 1963
Дата издания диска:
июль 1964
Дата переиздания диска:
20 апрель 1999
Издатель (лейбл):
Номер по каталогу:
7243 4 95332 2 6
Носитель:
CD
Битрейт аудио:
lossless
Аудиокодек:
APE (*.ape)
Тип рипа:
image+.cue
Время звучания:
50:48
Наличие сканов:
  • да
Релизёр (источник):
ordo
Треклист:
01. The Sidewinder 10:21
02. Totem Pole 10:11
03. Gary's Notebook 6:03
04. Boy, What a Night 7:30
05. Hocus-Pocus 6:21
06. Totem Pole (Alternate Take) [bonus track] 9:57
Состав:
Recorded in Van Gelder Studio, Englewood Cliffs.
Лог создания рипа
Exact Audio Copy V0.99 prebeta 2 from 28. July 2007
Отчёт EAC об извлечении, выполненном 21. августа 2007, 1:58
Lee Morgan / The Sidewinder
Дисковод: HL-DT-STDVDRAM GSA-4167B Adapter: 0 ID: 0
Режим чтения : Достоверность
Использование точного потока : Да
Отключение кэша аудио : Да
Использование указателей C2 : Нет
Коррекция смещения при чтении : 667
Способность читать области Lead-in и Lead-out : Нет
Заполнение пропущенных сэмплов тишиной : Да
Удаление блоков с тишиной в начале и конце : Нет
При вычислениях CRC использовались нулевые сэмплы : Да
Интерфейс : Установленный внешний ASPI-интерфейс
Выходной формат : Внутренние WAV-операции
Формат сэмплов : 44.100 Гц; 16 бит; стерео
TOC извлечённого CD
Трек | Старт | Длительность | Начальный сектор | Конечный сектор
---------------------------------------------------------------------
1 | 0:00.00 | 10:25.22 | 0 | 46896
2 | 10:25.22 | 10:14.71 | 46897 | 93017
3 | 20:40.18 | 6:10.12 | 93018 | 120779
4 | 26:50.30 | 7:34.39 | 120780 | 154868
5 | 34:24.69 | 6:25.52 | 154869 | 183795
6 | 40:50.46 | 9:57.67 | 183796 | 228637
Характеристики диапазона извлечения и сообщения об ошибках
Выбранный диапазон
Пиковый уровень 97.9 %
Качество диапазона 100.0 %
CRC копии AF15A6B9
Копирование... OK
Ошибок не произошло
AccurateRip: сводка
Трек 1 точное извлечение (доверие 1) [6BC3955F]
Трек 2 точное извлечение (доверие 1) [08ED33DF]
Трек 3 точное извлечение (доверие 1) [5F2532F9]
Трек 4 точное извлечение (доверие 1) [959CB7E0]
Трек 5 точное извлечение (доверие 1) [E7B44C83]
Трек 6 точное извлечение (доверие 1) [43D8035A]
Все треки извлечены точно
Конец отчёта
Лог проверки качества
<spoiler title="CUEtools log">[CUETools log; Date: 02.10.2011 12:39:43; Version: 2.1.2a]
[CTDB TOCID: Pidfp5GB2lLt8cloeulgxhyfG5A-] found.
        [ CTDBID ] Status
        [b99966b9] (85/85) Accurately ripped
[AccurateRip ID: 000ca25e-00421ff4-3f0be806] found.
Track   [ CRC    ] Status
 01     [6bc3955f] (59/97) Accurately ripped
 02     [08ed33df] (58/96) Accurately ripped
 03     [5f2532f9] (59/97) Accurately ripped
 04     [959cb7e0] (59/97) Accurately ripped
 05     [e7b44c83] (56/94) Accurately ripped
 06     [43d8035a] (57/95) Accurately ripped
AccurateRip v2:
 01     [d6735ef3] (07/97) Accurately ripped
 02     [c66214fd] (07/96) Accurately ripped
 03     [17711ce0] (07/97) Accurately ripped
 04     [fac611b2] (07/97) Accurately ripped
 05     [67e5d413] (07/94) Accurately ripped
 06     [d4f2440e] (07/95) Accurately ripped
Offsetted by -12:
 01     [5970acd7] (16/97) Accurately ripped
 02     [74bc1713] (16/96) Accurately ripped
 03     [5de7509d] (16/97) Accurately ripped
 04     [4901cde8] (16/97) Accurately ripped
 05     [7c85c4ab] (16/94) Accurately ripped
 06     [ace4f282] (16/95) Accurately ripped
Offsetted by -6:
 01     [629a211b] (10/97) Accurately ripped
 02     [bed4a579] (10/96) Accurately ripped
 03     [5e8641cb] (10/97) Accurately ripped
 04     [6f4f42e4] (10/97) Accurately ripped
 05     [321d0897] (10/94) Accurately ripped
 06     [f85e7aee] (10/95) Accurately ripped
Track Peak [ CRC32  ] [W/O NULL] [  LOG   ]
 --   97,9 [AF15A6B9] [96840B5B]   CRC32
 01   97,9 [95BFBD76] [A847DFEF]
 02   97,9 [A838E08D] [560A4244]
 03   97,9 [0DD6D997] [61F3F857]
 04   97,9 [105207FC] [25ABCE68]
 05   97,9 [A2935F63] [55F32EB4]
 06   97,9 [5CED1BD0] [2947B870]</spoiler>
Приватный:
Нет (DHT включён)
Размер:
332.79 Мб (348,953,298 байт) » файлов: 10
Участники:
0 раздают, 0 качают (0 участников всего)
Внешние участники:
8 раздают, 2 качают (10 участников всего) [ Обновить ]
21:09
59
RSS
Нет комментариев. Ваш будет первым!