Поиск

1963 Acker Bilk - Mister Acker Bilk Plays "My Early Days" (2022) {Society} [24-96]

1963 Acker Bilk - Mister Acker Bilk Plays "My Early Days" (2022) {Society} [24-96]
Стили:
Носитель:
WEB
Формат:
PCM
Тип рипа:
tracks
Контейнер:
FLAC (*.flac)
Количество каналов:
2.0
Разрядность/ЧД:
24/96
Битрейт аудио:
lossless
Время звучания:
00:41:20
Наличие сканов:
только обложка
Релизёр (источник):
ZiV

Треклист:

01. Travelling Blues (3:07)
02. Ad Lib Blues (4:51)
03. Don't Go Way Nobody (3:10)
04. Dippermouth Blues (2:50)
05. Storyville Blues (4:13)
06. Come on and Stomp, Stomp, Stomp (4:07)
07. Lou-Easy-an-I-A (3:08)
08. High Society (3:45)
09. Snag It (4:20)
10. Sing On (2:15)
11. Tartan Socks (3:08)
12. Red Wing (2:26)

Состав:
  • Acker Bilk clarinet
  • Bob Wallis And His Storyville Jazzmen
Доп. инфо:

Society Records представляет эту нетронутую высококачественную цифровую передачу Mister Acker Bilk в сопровождении "Избранной семерки" Джонни Бастейбла и джазменов Bob Wallis & The Storyville, исполняющих "Мои первые дни"! В коллекции представлены классические стандарты из молодой карьеры.

~ prostudiomasters.com

Лог проверки качества
foobar2000 1.3.7 / Dynamic Range Meter 1.1.1
log date: 2022-07-16 01:50:52

--------------------------------------------------------------------------------
Analyzed: Acker Bilk / Mister Acker Bilk Plays "My Early Days"
--------------------------------------------------------------------------------

DR         Peak         RMS     Duration Track
--------------------------------------------------------------------------------
DR10      -1.20 dB   -12.80 dB      3:07 01-Travelling Blues
DR10      -1.21 dB   -13.18 dB      4:52 02-Ad Lib Blues
DR11      -1.20 dB   -13.64 dB      3:10 03-Don't Go Way Nobody
DR10      -1.21 dB   -12.51 dB      2:51 04-Dippermouth Blues
DR10      -1.21 dB   -13.00 dB      4:14 05-Storyville Blues
DR10      -1.21 dB   -12.46 dB      4:08 06-Come on and Stomp, Stomp, Stomp
DR10      -1.21 dB   -12.28 dB      3:08 07-Lou-Easy-an-I-A
DR12      -1.21 dB   -14.45 dB      3:46 08-High Society
DR10      -1.20 dB   -12.91 dB      4:21 09-Snag It
DR9       -1.21 dB   -11.74 dB      2:15 10-Sing On
DR10      -1.22 dB   -13.18 dB      3:09 11-Tartan Socks
DR10      -1.21 dB   -12.19 dB      2:27 12-Red Wing
--------------------------------------------------------------------------------

Number of tracks:  12
Official DR value: DR10

Samplerate:        96000 Hz
Channels:          2
Bits per sample:   24
Bitrate:           2559 kbps
Codec:             FLAC
================================================================================

Any questions - support@pro-jazz.com
To become a power user - read FAQ.
22:24
204
ZiV
Нет комментариев. Ваш будет первым!