Поиск

1963 (1991) John Coltrane - Impressions {Impulse! 05887}

1963 (1991) John Coltrane - Impressions {Impulse! 05887}
Страна-производитель диска (релиза):
USA
Дата записи диска:
3 ноября 1961 - 29 апреля 1963
Дата издания диска:
1963
Издатель (лейбл):
Номер по каталогу:
05887
Носитель:
CD
Битрейт аудио:
lossless
Аудиокодек:
APE (*.ape)
Тип рипа:
tracks
Время звучания:
47:38
Наличие сканов:
  • нет
Релизёр (источник):
Till Lindeman

Треклист:

1. India (14:11)
2. Up 'Gainst The Wall (3:17)
3. Impressions (15:06)
4. After The Rain (4:27)
5. Dear Old Stockholm (Bonus Track) (10:38)

Состав:
  • John Coltrane    Composer, Sax (Soprano), Sax (Tenor)
  • Eric Dolphy    Clarinet (Bass), Sax (Alto)
  • Jimmy Garrison    Bass
  • Roy Haynes    Drums
  • Elvin Jones    Drums
  • Peter Keepnews    Notes Editing
  • Bob Thiele    Producer
  • McCoy Tyner    Piano
  • Rudy Van Gelder    Engineer
  • Reggie Workman    Bass
Лог создания рипа
Отчёт EAC об извлечении, выполненном 1. июня 2007, 14:11 для диска:
John Coltrane / Impressions

Дисковод: PLEXTOR CD-R   PX-W5224A   Adapter: 0  ID: 0
Режим чтения: Достоверный (C2: нет, Точный поток: да, Отключение кэша: да)
Коррекция смещения при чтении: 30
Способность читать области Lead-in и Lead-out : Нет

Выходной формат: Внутренние WAV-операции
                     44.100 Гц; 16 бит; стерео

Другие параметры:
    Заполнение пропущенных сэмплов тишиной : Да
    Удаление блоков с тишиной в начале и конце : Нет
    Встроенный Win32-интерфейс для Win NT/2000

Трек  1
     Имя файла D:\Downloads\Music\01 - India.wav

     Длина предзазора  0:00:02.00

     Пиковый уровень 100.0 %
     Качество трека 100.0 %
     CRC копии B0D030F3
     Копирование... OK

Трек  2
     Имя файла D:\Downloads\Music\02 - Up 'Gainst The Wall.wav

     Длина предзазора  0:00:03.70

     Пиковый уровень 100.0 %
     Качество трека 100.0 %
     CRC копии 92AEC9F2
     Копирование... OK

Трек  3
     Имя файла D:\Downloads\Music\03 - Impressions.wav

     Длина предзазора  0:00:05.05

     Пиковый уровень 100.0 %
     Качество трека 100.0 %
     CRC копии 8BF722A9
     Копирование... OK

Трек  4
     Имя файла D:\Downloads\Music\04 - After The Rain.wav

     Длина предзазора  0:00:02.70

     Пиковый уровень 100.0 %
     Качество трека 100.0 %
     CRC копии 20CB8DF5
     Копирование... OK

Трек  5
     Имя файла D:\Downloads\Music\05 - Dear Old Stockholm (Bonus Track).wav

     Длина предзазора  0:00:18.00

     Пиковый уровень 100.0 %
     Качество трека 100.0 %
     CRC копии 082C9E34
     Копирование... OK

Ошибок не произошло

Конец отчёта
Содержание индексной карты (.CUE)
REM GENRE Jazz
REM DATE 1961
REM DISCID 3B0B2A05
REM COMMENT "ExactAudioCopy v0.95b4"
CATALOG 0731454341622
PERFORMER "John Coltrane"
TITLE "Impressions"
FILE "01 - India.wav" WAVE
  TRACK 01 AUDIO
    TITLE "India"
    PERFORMER "John Coltrane"
    ISRC USMC16352829
    INDEX 01 00:00:00
FILE "02 - Up 'Gainst The Wall.wav" WAVE
  TRACK 02 AUDIO
    TITLE "Up 'Gainst The Wall"
    PERFORMER "John Coltrane"
    ISRC USMC16251923
    PREGAP 00:03:70
    INDEX 01 00:00:00
FILE "03 - Impressions.wav" WAVE
  TRACK 03 AUDIO
    TITLE "Impressions"
    PERFORMER "John Coltrane"
    ISRC USMC16352830
    PREGAP 00:05:05
    INDEX 01 00:00:00
    INDEX 02 10:18:45
FILE "04 - After The Rain.wav" WAVE
  TRACK 04 AUDIO
    TITLE "After The Rain"
    PERFORMER "John Coltrane"
    ISRC USMC16352616
    PREGAP 00:02:70
    INDEX 01 00:00:00
FILE "05 - Dear Old Stockholm (Bonus Track).wav" WAVE
  TRACK 05 AUDIO
    TITLE "Dear Old Stockholm (Bonus Track)"
    PERFORMER "John Coltrane"
    ISRC USMC16311468
    PREGAP 00:18:00
    INDEX 01 00:00:00
Приватный:
Да (DHT отключён)
Размер:
332.90 Мб (349,069,446 байт) » файлов: 8
Участники:
0 раздают, 0 качают (0 участников всего)
Внешние участники:
5 раздают, 1 качают (6 участников всего) [ Обновить ]
14:33
38
RSS
Нет комментариев. Ваш будет первым!