Поиск

1962 (1999) Art Blakey and The Afro-Drum Ensemble - The African Beat

1962 (1999) Art Blakey and The Afro-Drum Ensemble - The African Beat
Стили:
Страна-производитель диска (релиза):
USA
Дата записи диска:
24 января 1962
Дата издания диска:
ноябрь 1962
Дата переиздания диска:
23 июля 1999
Издатель (лейбл):
Номер по каталогу:
TOCJ-9117
Носитель:
CD
Битрейт аудио:
lossless
Аудиокодек:
FLAC (*.flac)
Тип рипа:
tracks+.cue
Время звучания:
40:20 min
Наличие сканов:
  • да
Релизёр (источник):
mironov_ad
Состав:
  • Ahmed Abdul-Malik Bass
  • Chief Bay Congas, Percussion, Drums, Gong
  • Art Blakey Composer, Drums, Drums (Snare), Gong, Percussion, Timpani
  • Robert Crowder Bata Drums, Congas, Percussion
  • Michael Cuscuna Reissue Producer
  • James Ola. Folami Congas, Percussion
  • Curtis Fuller Timpani
  • Nat Hentoff Liner Notes
  • Solomon G. Illori Drums, Penny Whistle, Talking Drum, Vocals, Whistle (Instrument)
  • Yusef Lateef Flute, Horn, Oboe, Piano, Piano (Thumb), Sax (Tenor)
  • Alfred Lion Producer
  • Garvin Masseaux Chekere, Congas, Maracas, Percussion
  • Montego Joe Drums, Gong, Log Drums, Percussion
  • Rudy Van Gelder Engineer

Альбом записан 24 января 1962 года на Blue Note (т.е. Rudi van Gelder), оцифрован в 1999 году. Напоминает более экзотические сессии Yusef Lateef того же периода, но весьма нетипичен для релизов Blue Note начала 60-ых. Состав весьма необычный, 7 ударников. В то же время тромбонист Curtis Fuller использует только литавры.

01. Prayer by Solomon G Llori (Traditional) :55
02. Ife l'Ayo (There Is Happiness in Love) (Solomon) 5:30
03. Obirin African (Woman of Africa) (Blakey) 3:42
04. Love, the Mystery Of (Warren) 9:24
05. Ero Ti Nr'ojeje (Llori) 7:34
06. Ayiko, Ayiko (Solomon) 7:14
07. Tobi Ilu (Bey) 5:57

Лог создания рипа
EAC extraction logfile from 12. May 2006, 18:21 for CD
Art Blakey / The African Beat
Used drive : PLEXTOR DVDR PX-712A Adapter: 0 ID: 0
Read mode : Secure with NO C2, accurate stream, disable cache
Read offset correction : 30
Overread into Lead-In and Lead-Out : No
Used output format : C:\Program\FLAC\flac.exe (User Defined Encoder)
320 kBit/s
Additional command line options : -5 -V -T "ARTIST=%a" -T "TITLE=%t" -T "ALBUM=%g" -T "DATE=%y" -T "TRACKNUMBER=%n" -T "GENRE=%m" -T "COMMENT=EAC Flac 1.1.2 -5" %s
Other options :
Fill up missing offset samples with silence : Yes
Delete leading and trailing silent blocks : No
Installed external ASPI interface
Track 1
Filename G:\Art Blakey - The African Beat (1962) [FLAC]\01 - Prayer by Solomon G. Ilori.wav
Pre-gap length 0:00:02.00
Peak level 94.2 %
Track quality 100.0 %
Test CRC ED3E2E86
Copy CRC ED3E2E86
Copy OK
Track 2
Filename G:\Art Blakey - The African Beat (1962) [FLAC]\02 - Ife L'Ayo (There Is Happiness In Love).wav
Pre-gap length 0:00:02.40
Peak level 92.2 %
Track quality 100.0 %
Test CRC 8540184C
Copy CRC 8540184C
Copy OK
Track 3
Filename G:\Art Blakey - The African Beat (1962) [FLAC]\03 - Obirin African (Woman Of Africa).wav
Peak level 85.9 %
Track quality 100.0 %
Test CRC 8E7EC7A5
Copy CRC 8E7EC7A5
Copy OK
Track 4
Filename G:\Art Blakey - The African Beat (1962) [FLAC]\04 - Love, The Mystery Of.wav
Pre-gap length 0:00:01.30
Peak level 93.3 %
Track quality 100.0 %
Test CRC 775A0FF5
Copy CRC 775A0FF5
Copy OK
Track 5
Filename G:\Art Blakey - The African Beat (1962) [FLAC]\05 - Ero Ti Nr'Ojeje.wav
Peak level 93.3 %
Track quality 100.0 %
Test CRC A6EDEC3F
Copy CRC A6EDEC3F
Copy OK
Track 6
Filename G:\Art Blakey - The African Beat (1962) [FLAC]\06 - Ayiko, Ayiko (Welcome, Welcome, My Darling).wav
Pre-gap length 0:00:01.09
Peak level 95.5 %
Track quality 100.0 %
Test CRC 4882311D
Copy CRC 4882311D
Copy OK
Track 7
Filename G:\Art Blakey - The African Beat (1962) [FLAC]\07 - Tobi Ilu.wav
Pre-gap length 0:00:01.40
Peak level 92.2 %
Track quality 100.0 %
Test CRC 1C5D639B
Copy CRC 1C5D639B
Copy OK
No errors occured
End of status report
Приватный:
Нет (DHT включён)
Размер:
275.26 Мб (288,630,768 байт) » файлов: 18
Участники:
6 раздают, 0 качают (6 участников всего)
Внешние участники:
1 раздают, 0 качают (1 участников всего) [ Обновить ]
Скорость:
178.28 Кб/c 0/c
21:17
147
RSS
Нет комментариев. Ваш будет первым!