Поиск

1962 (1997) The Oscar Peterson Trio - Night Train {Verve 314 521 440-2}

1962 (1997) The Oscar Peterson Trio - Night Train {Verve 314 521 440-2}
Страна-производитель диска (релиза):
USA
Дата записи диска:
16 декабря 1962
Дата издания диска:
1997
Номер по каталогу:
314 521 440-2
Носитель:
CD
Битрейт аудио:
lossless
Аудиокодек:
APE (*.ape)
Тип рипа:
image+.cue
Время звучания:
68:28
Наличие сканов:
  • да
Релизёр (источник):
alexsor
Треклист:

01. Happy-Go-Lucky Local (Aka "Night Train") [0:04:52.80]
02. C-Jam Blues [0:03:26.09]
03. Georgia On My Mind [0:03:46.60]
04. Bag's Groove [0:05:43.04]
05. Moten Swing [0:02:55.46]
06. Easy Does It [0:02:45.69]
07. The Honeydripper [0:02:24.73]
08. Things Ain't What They Used To Be [0:04:38.77]
09. I Got It Bad (And That Ain't Good) [0:05:08.89]
10. Band Call [0:03:55.46]
11. Hymn To Freedom [0:05:38.13]
12. Happy-Go-Lucky Local (Aka "Night Train")* - Alternative Take [0:05:00.06]
13. Volare* [0:02:49.30]
14. My Heart Belongs To Daddy* [0:03:57.69]
15. Moten Swing* - Rehearsal Take [0:03:36.70]
16. Now's The Time* [0:02:36.69]
17. This Could Be The Start Of Something* [0:05:11.80]
(*) previously unissued

Состав:
  • Ray Brown    Bass
  • Norman Granz    Producer
  • Benny Green    Liner Notes
  • Oscar Peterson    Composer, Piano
  • Ed Thigpen    Drums

Записано в Los Angeles, CA

Лог создания рипа
Exact Audio Copy V0.99 prebeta 3 from 28. July 2007

Отчёт EAC об извлечении, выполненном 10. января 2008, 20:06

The Oscar Peterson Trio / Night Train

Дисковод: Optiarc DVD RW AD-7170S Adapter: 2 ID: 0

Режим чтения : Достоверность
Использование точного потока : Да
Отключение кэша аудио : Да
Использование указателей C2 : Нет

Коррекция смещения при чтении : 48
Способность читать области Lead-in и Lead-out : Нет
Заполнение пропущенных сэмплов тишиной : Да
Удаление блоков с тишиной в начале и конце : Нет
При вычислениях CRC использовались нулевые сэмплы : Нет
Интерфейс : Установленный внешний ASPI-интерфейс

Выходной формат : Monkey's Audio Lossless Encoder v3.99 DLL
Формат сэмплов : Normal Lossless Compression

TOC извлечённого CD

Трек | Старт | Длительность | Начальный сектор | Конечный сектор
---------------------------------------------------------------------
1 | 0:00.00 | 4:52.60 | 0 | 21959
2 | 4:52.60 | 3:26.07 | 21960 | 37416
3 | 8:18.67 | 3:46.45 | 37417 | 54411
4 | 12:05.37 | 5:43.03 | 54412 | 80139
5 | 17:48.40 | 2:55.35 | 80140 | 93299
6 | 20:44.00 | 2:45.52 | 93300 | 105726
7 | 23:29.52 | 2:24.55 | 105727 | 116581
8 | 25:54.32 | 4:38.58 | 116582 | 137489
9 | 30:33.15 | 5:08.67 | 137490 | 160656
10 | 35:42.07 | 3:55.35 | 160657 | 178316
11 | 39:37.42 | 5:38.10 | 178317 | 203676
12 | 45:15.52 | 5:00.05 | 203677 | 226181
13 | 50:15.57 | 2:49.23 | 226182 | 238879
14 | 53:05.05 | 3:57.52 | 238880 | 256706
15 | 57:02.57 | 3:36.53 | 256707 | 272959
16 | 60:39.35 | 2:36.52 | 272960 | 284711
17 | 63:16.12 | 5:11.60 | 284712 | 308096

Характеристики диапазона извлечения и сообщения об ошибках

Выбранный диапазон

Имя файла C:\EAC\The Oscar Peterson Trio - Night Train.ape

Пиковый уровень 100.0 %
Качество диапазона 99.9 %
CRC копии 70576050
Копирование... OK

Ошибок не произошло

Конец отчёта
Приватный:
Нет (DHT включён)
Размер:
367.07 Мб (384,899,611 байт) » файлов: 15
Участники:
0 раздают, 0 качают (0 участников всего)
Внешние участники:
3 раздают, 1 качают (4 участников всего) [ Обновить ]
21:29
62
RSS
Нет комментариев. Ваш будет первым!