Поиск

1961 Eric Dolphy - At the Five Spot, Vol. 1 (2018) {Analogue Productions} [DSD64 2,8-1]

1961 Eric Dolphy - At the Five Spot, Vol. 1 (2018) {Analogue Productions} [DSD64 2,8-1]
Стили:
Издатель (лейбл):
Треклист:

Формат записи/Источник записи: [SACD-R][OF]
Наличие водяных знаков: Нет
Год издания/переиздания диска: 1961/2018
Продолжительность: 00:47:37
Наличие сканов в содержимом раздачи: Только обложка альбома
Контейнер: ISO (*.iso)
Тип рипа: image
Разрядность: 64 (2,8 MHz/1 Bit)
Формат: DSD
Количество каналов: 2.0
Источник (релизер): elusivedisc (jazzyman (PS³SACD))

Треклист:
01. Fire Waltz
02. Bee Vamp
03. The Prophet

 
Лог DR
foobar2000 1.3.13 / Замер динамического диапазона (DR) 1.1.1
Дата отчёта:  2018-07-08 10:52:14
--------------------------------------------------------------------------------
Анализ:   Eric Dolphy With Booker Little, Mal Waldron, Richard Davis, And Eddie Blackwell / Eric Dolphy At The Five Spot
--------------------------------------------------------------------------------
DR         Пики         RMS           Продолжительность трека
--------------------------------------------------------------------------------
DR13      -8.16 дБ   -24.72 дБ     13:48 01-Fire Waltz
DR14      -6.70 дБ   -24.39 дБ     12:22 02-Bee Vamp
DR13      -5.09 дБ   -23.90 дБ     21:26 03-The Prophet
--------------------------------------------------------------------------------
Количество треков: 3
Реальные значения DR: DR13
Частота:   2822400 Гц / Частота PCM: 352800 Гц
Каналов:   2
Разрядность:   24
Битрейт:   5645 кбит/с
Кодек:   DSD64
================================================================================
Скачивание доступно после регистрации!!
Приватный:
Нет (DHT включён)
Размер:
1.91 Гб (2,054,765,274 байт) » файлов: 4
Участники:
0 раздают, 0 качают (0 участников всего)
Внешние участники:
5 раздают, 2 качают (7 участников всего) [ Обновить ]
15:00
752
Нет комментариев. Ваш будет первым!