Поиск

1961 (2004) John Coltrane — Coltrane Jazz {Atlantic / Rhino 81227 6589 2}

1961 (2004) John Coltrane — Coltrane Jazz {Atlantic / Rhino 81227 6589 2}
Страна-производитель диска (релиза):
USA
Дата записи диска:
26 марта 1959 - 21 октября 1960
Дата издания диска:
февраль 1961
Дата переиздания диска:
2004
Номер по каталогу:
81227 6589 2
Носитель:
CD
Битрейт аудио:
lossless
Аудиокодек:
FLAC (*.flac)
Тип рипа:
tracks+.cue
Время звучания:
63:10
Наличие сканов:
  • да
Релизёр (источник):
JanV

Треклист:

01. Little Old Lady 4:25
02. Village Blues 5:21
03. My Shining Hour 4:50
04. Fifth House 4:38
05. Harmonique 4:10
06. Like Sonny 5:51
07. I'll Wait and Pray 3:32
08. Some Other Blues 5:33
Bonus Tracks
09. Like Sonny (alternate take) 6:03
10. I'll Wait and Pray (alternate take) 3:25
11. Like Sonny (alternate take 5) 8:10
12. Village Blues (alternate take) 6:14

Состав:

On tracks 2 & 12, the personnel is:
JOHN COLTRANE, tenor saxophone;
McCoy Tyner, piano;
STEVE DAVIS, bass;
ELVIN JONES, drums.
Recorded at Atlantic Studios, New York City; October 21, 1960.

On tracks 1, 7 & 10, the personnel is
JOHN COLTRANE, tenor saxophone;
Wynton Kelly, piano,
PAUL CHAMBERS, bass;
JIMMY COBB, drums.
Recorded at Atlantic Studios, New York City; November 24, 1959.

On tracks 3 — 6 & 8, the personnel is:
JOHN COLTRANE, tenor saxophone;
WYNTON KEUY, piano;
PAUL CHAMBERS, bass;
JIMMY COBB, drums.
Recorded at Atlantic Studios, New York City; December 2, 1959.

On tracks 9 & 11, the personnel is:
JOHN COLTRANE, tenor saxophone;
CEDAR WALTON, piano;
PAUL CHAMBERS, bass;
LEX HUMPHRIES, drums.
Recorded at Atlantic Studios, New York City; March 26, 1959.

Tracks 9 & 10 originally issued on Alternate Takes, Atlantic 1668, January 1975;
tracks 11 & 12 originally released on John Coltrane: The Heavyweight Champion: The Complete Atlantic Recordings, Rhino / Atlantic R2 71984, August 1995.

Отчёт EAC об извлечении, выполненном 4. апреля 2007, 20:30 для диска:
John Coltrane / Coltrane Jazz
Дисковод: TSSTcorpCD/DVDW SH-S182D Adapter: 1 ID: 0
Режим чтения: Достоверный (C2: нет, Точный поток: да, Отключение кэша: да)
Комбинированное смещение чтения/записи: 0
Способность читать области Lead-in и Lead-out : Нет
Выходной формат: Внутренние WAV-операции 44.100 Гц; 16 бит; стерео
Другие параметры: Заполнение пропущенных сэмплов тишиной : Да Удаление блоков с тишиной в начале и конце : Нет Встроенный Win32-интерфейс для Win NT/2000
Трек 1 Имя файла D:\Music\jazz\C\Coltrane, John\wav\01 - Little Old Lady.wav Пиковый уровень 89.2 % Качество трека 100.0 % CRC теста E6AE3046 CRC копии E6AE3046 Копирование... OK
Трек 2 Имя файла D:\Music\jazz\C\Coltrane, John\wav\02 - Village Blues.wav Пиковый уровень 95.5 % Качество трека 100.0 % CRC теста BFDCF9A7 CRC копии BFDCF9A7 Копирование... OK
Трек 3 Имя файла D:\Music\jazz\C\Coltrane, John\wav\03 - My Shining Hour.wav Пиковый уровень 91.9 % Качество трека 100.0 % CRC теста 0A65A5DE CRC копии 0A65A5DE Копирование... OK
Трек 4 Имя файла D:\Music\jazz\C\Coltrane, John\wav\04 - Fifth House.wav Пиковый уровень 90.5 % Качество трека 100.0 % CRC теста 7F7BBA4C CRC копии 7F7BBA4C Копирование... OK
Трек 5 Имя файла D:\Music\jazz\C\Coltrane, John\wav\05 - Harmonique.wav Пиковый уровень 88.0 % Качество трека 100.0 % CRC теста 4A3006B5 CRC копии 4A3006B5 Копирование... OK
Трек 6 Имя файла D:\Music\jazz\C\Coltrane, John\wav\06 - Like Sonny.wav Пиковый уровень 81.1 % Качество трека 100.0 % CRC теста 260E7DD3 CRC копии 260E7DD3 Копирование... OK
Трек 7 Имя файла D:\Music\jazz\C\Coltrane, John\wav\07 - I'll Wait And Pray.wav Пиковый уровень 77.2 % Качество трека 100.0 % CRC теста EA10CC4A CRC копии EA10CC4A Копирование... OK
Трек 8 Имя файла D:\Music\jazz\C\Coltrane, John\wav\08 - Some Other Blues.wav Пиковый уровень 97.2 % Качество трека 100.0 % CRC теста FCC113F2 CRC копии FCC113F2 Копирование... OK
Трек 9 Имя файла D:\Music\jazz\C\Coltrane, John\wav\09 - Like Sonny (alternate take).wav Пиковый уровень 97.2 % Качество трека 100.0 % CRC теста E19B48FA CRC копии E19B48FA Копирование... OK
Трек 10 Имя файла D:\Music\jazz\C\Coltrane, John\wav\10 - I'll Wait And Pray (alternate take).wav Пиковый уровень 81.3 % Качество трека 100.0 % CRC теста DB515E13 CRC копии DB515E13 Копирование... OK
Трек 11 Имя файла D:\Music\jazz\C\Coltrane, John\wav\11 - Like Sonny (alternate take 5).wav Пиковый уровень 87.5 % Качество трека 100.0 % CRC теста C6477897 CRC копии C6477897 Копирование... OK
Трек 12 Имя файла D:\Music\jazz\C\Coltrane, John\wav\12 - Village Blues (alternate take).wav Пиковый уровень 97.2 % Качество трека 100.0 % CRC теста 7B4F431D CRC копии 7B4F431D Копирование... OK
Ошибок не произошло
Конец отчёта
Приватный:
Нет (DHT включён)
Размер:
429.59 Мб (450,456,933 байт) » файлов: 20
Участники:
0 раздают, 0 качают (0 участников всего)
Внешние участники:
3 раздают, 1 качают (4 участников всего) [ Обновить ]
Скорость:
Торрент не зарегистрирован на трекере
02:20
54
RSS
Нет комментариев. Ваш будет первым!