Поиск

1961 (1997) Stan Getz & Eddie Sauter - Focus {Verve MGM VGS 552 (521 419-2)}

1961 (1997) Stan Getz & Eddie Sauter - Focus {Verve MGM VGS 552 (521 419-2)}
Издатель (лейбл):

Состав:
  • Norman Carr    Vocals
  • Dom Cerulli    Liner Notes
  • Stan Getz    Sax (Alto), Sax (Tenor)
  • Jacob Glick    Violin
  • Ray Hall    Engineer, Mastering
  • Roy Haynes    Drums
  • Hershy Kay    Conductor
  • Alan Martin    Vocals
  • John Neves    Bass
  • Takao Ogawa    Liner Notes
  • Eddie Sauter    Arranger, Composer
  • Gerald Tarack    Vocals
  • C. Taylor    Producer
  • Creed Taylor    Producer
 
Лог создания рипа

EAC extraction logfile from 22. January 2006, 15:45 for CD
Stan Getz / Focus

Used drive  : SAMSUNG CD-R/RW SW-252B   Adapter: 1  ID: 0
Read mode  : Secure with NO C2, accurate stream, disable cache
Combined read/write offset correction: 0
Overread into Lead-In and Lead-Out: No

Used output format: G:\Programas\EAC\MAC.exe   (Monkey's Audio Lossless Encoder)
                     Normal Lossless Compression

Other options      : 
    Fill up missing offset samples with silence: Yes
    Delete leading and trailing silent blocks: No
    Installed external ASPI interface


Range status and errors
Selected range
     Filename H:\Rips\Stan.Getz.&.Eddie.Sauter.-.Focus.(1961).[EAC.APE.CUE.MD5.COVERS].GuitarCry\CDImage.wav

     Peak level 100.0 %
     Range quality 100.0 %
     CRC F71B5C05
     Copy OK

No errors occured

End of status report

 
Содержание индексной карты (.CUE)

CATALOG 0731452141927
PERFORMER "Stan Getz"
TITLE "Focus"
FILE "CDImage.ape" WAVE
  TRACK 01 AUDIO
    TITLE "I'm Late, I'm Late"
    PERFORMER "Stan Getz"
    ISRC USPR36130165
    INDEX 01 00:00:00
  TRACK 02 AUDIO
    TITLE "Her"
    PERFORMER "Stan Getz"
    ISRC USPR36100018
    INDEX 00 08:08:12
    INDEX 01 08:10:70
  TRACK 03 AUDIO
    TITLE "Pan"
    PERFORMER "Stan Getz"
    ISRC USPR36130166
    INDEX 00 14:21:57
    INDEX 01 14:24:27
  TRACK 04 AUDIO
    TITLE "I Remember When"
    PERFORMER "Stan Getz"
    ISRC USPR36130167
    INDEX 00 18:19:50
    INDEX 01 18:22:40
  TRACK 05 AUDIO
    TITLE "Night Rider"
    PERFORMER "Stan Getz"
    ISRC USPR36100023
    INDEX 00 23:23:37
    INDEX 01 23:26:20
  TRACK 06 AUDIO
    TITLE "Once Upon a Time"
    PERFORMER "Stan Getz"
    ISRC USPR36130168
    INDEX 00 27:22:02
    INDEX 01 27:24:57
  TRACK 07 AUDIO
    TITLE "A Summer Afternoon"
    PERFORMER "Stan Getz"
    ISRC USPR36130169
    INDEX 00 32:10:67
    INDEX 01 32:13:42
  TRACK 08 AUDIO
    TITLE "I'm Late, I'm Late (45 rpm issue)"
    PERFORMER "Stan Getz"
    ISRC USPR36130170
    INDEX 00 38:12:17
    INDEX 01 38:17:15
  TRACK 09 AUDIO
    TITLE "I Remember When (45 rpm issue)"
    PERFORMER "Stan Getz"
    ISRC USPR36130171
    INDEX 00 40:45:47
    INDEX 01 40:48:15

 

Номер по каталогу: VGS 552 (521 419-2)
Страна-производитель диска (релиза): USA
Дата записи диска: 14, 28 июля и сентябрь-октябрь 1961
Дата издания диска: 1997
Издатель (лейбл): MGM Records, PolyGram, Verve Records
Носитель: CD
Битрейт аудио: lossless
Аудиокодек: APE (*.ape)
Тип рипа: image+.cue
Время звучания: 43:46
Наличие сканов: да
Релизёр (источник): Гость

Треклист:
1. I'm Late, I'm Late
2. Her
3. Pan
4. I Remember When
5. Night Rider
6. Once Upon A Time
7. A Summer Afternoon
8. I'm Late, I'm Late (45 Rpm Issue)
9. I Remember When (45 Rpm Issue)

Приватный:
Нет (DHT включён)
Размер:
307.58 Мб (322,518,972 байт) » файлов: 13
Участники:
0 раздают, 0 качают (0 участников всего)
Внешние участники:
1 раздают, 0 качают (1 участников всего) [ Обновить ]
21:33
180
RSS
Нет комментариев. Ваш будет первым!