Поиск

1961 (1996) Art Blakey & The Jazz Messengers - Art Blakey!!!!! Jazz Messengers!!!!!

1961 (1996) Art Blakey & The Jazz Messengers - Art Blakey!!!!! Jazz Messengers!!!!!
Страна-производитель диска (релиза):
USA
Дата записи диска:
13-14 июня 1961
Дата издания диска:
1961
Дата переиздания диска:
30 января 1996
Издатель (лейбл):
Номер по каталогу:
IMPD175
Носитель:
CD
Битрейт аудио:
lossless
Аудиокодек:
APE (*.ape)
Тип рипа:
image+.cue
Время звучания:
38:04
Наличие сканов:
  • да
Релизёр (источник):
ordo
Треклист:

01. Alamode \6:48\
02. Invitation \7:25\
03. Circus \5:12\
04. You Don't Know What Love Is \6:58\
05. I Hear A Rhapsody \6:31\
06. Gee Baby, Ain't I Good To You \4:57\

Состав:
  • Art Blakey — drums
  • Lee Morgan — trumpet
  • Curtis Fuller — trombone
  • Wayne Shorter — tenor saxophone
  • Robert H. Timmons — piano
  • Jymie Merritt — bass
  • Bob Thiele — producer
  • Rudy Van Gelder — engineer
Exact Audio Copy V0.99 prebeta 2 from 28. July 2007
Отчёт EAC об извлечении, выполненном 5. сентября 2007, 21:56
Art Blakey & The Jazz Messengers / Art Blakey & The Jazz Messengers
Дисковод: HL-DT-STDVDRAM GSA-4167B Adapter: 0 ID: 0
Режим чтения : Достоверность
Использование точного потока : Да
Отключение кэша аудио : Да
Использование указателей C2 : Нет
Коррекция смещения при чтении : 667
Способность читать области Lead-in и Lead-out : Нет
Заполнение пропущенных сэмплов тишиной : Да
Удаление блоков с тишиной в начале и конце : Нет
При вычислениях CRC использовались нулевые сэмплы : Да
Интерфейс : Установленный внешний ASPI-интерфейс
Выходной формат : Внутренние WAV-операции
Формат сэмплов : 44.100 Гц; 16 бит; стерео
TOC извлечённого CD
Трек | Старт | Длительность | Начальный сектор | Конечный сектор
---------------------------------------------------------------------
1 | 0:00.00 | 6:50.65 | 0 | 30814
2 | 6:50.65 | 7:28.22 | 30815 | 64436
3 | 14:19.12 | 5:14.08 | 64437 | 87994
4 | 19:33.20 | 7:00.40 | 87995 | 119534
5 | 26:33.60 | 6:33.27 | 119535 | 149036
6 | 33:07.12 | 4:57.58 | 149037 | 171369
Характеристики диапазона извлечения и сообщения об ошибках
Выбранный диапазон
Имя файла H:\Muzlo\JAZZ\BIG JAZZ\RIPER-CUTTER\Art Blakey & The Jazz Messengers - Art Blakey & The Jazz Messengers.wav
Пиковый уровень 96.0 %
Качество диапазона 99.9 %
CRC копии 5267C802
Копирование... OK
Ошибок не произошло
Конец отчёта
Приватный:
Нет (DHT включён)
Размер:
255.33 Мб (267,733,620 байт) » файлов: 12
Участники:
0 раздают, 0 качают (0 участников всего)
Внешние участники:
5 раздают, 1 качают (6 участников всего) [ Обновить ]
Скорость:
Торрент не зарегистрирован на трекере
20:07
82
RSS
Нет комментариев. Ваш будет первым!