Поиск

1961 (1991) Bobby Timmons Trio - In Person: Recorded Live at the Village Vanguard

1961 (1991) Bobby Timmons Trio - In Person: Recorded Live at the Village Vanguard
Стили:
Страна-производитель диска (релиза):
Germany
Дата записи диска:
1 октября 1961
Дата издания диска:
1961
Дата переиздания диска:
1 июля 1991
Номер по каталогу:
OJCCD-364-2
Носитель:
CD
Аудиокодек:
FLAC (*.flac)
Тип рипа:
tracks+.cue
Битрейт аудио:
1
Время звучания:
51:18
Релизёр (источник):
mironov_ad
Состав:
  • Ron Carter Bass
  • Ray Fowler Engineer
  • Joe Goldberg Liner Notes
  • Albert Heath Drums
  • Albert «Tootie» Heath Drums
  • Orrin Keepnews Producer
  • Bobby Timmons Composer, Piano
Лог создания рипа
EAC extraction logfile from 11. March 2007, 13:08 for CD
TheBobby Timmons Trio / In Person
Used drive : HL-DT-STDVDRAM GSA-4163B Adapter: 1 ID: 1
Read mode : Secure with NO C2, accurate stream, disable cache
Read offset correction : 667
Overread into Lead-In and Lead-Out : No
Used output format : Internal WAV Routines
44.100 Hz; 16 Bit; Stereo
Other options :
Fill up missing offset samples with silence : Yes
Delete leading and trailing silent blocks : No
Installed external ASPI interface
Track 1
Filename D:\Bobby Timmons - In Person (1961)[FLAC]{OJC}\01 - Autumn Leaves.wav
Pre-gap length 0:00:02.00
Peak level 100.0 %
Track quality 100.0 %
Test CRC D6F55E7E
Copy CRC D6F55E7E
Copy OK
Track 2
Filename D:\Bobby Timmons - In Person (1961)[FLAC]{OJC}\02 - So Tired.wav
Peak level 100.0 %
Track quality 100.0 %
Test CRC 0B14C669
Copy CRC 0B14C669
Copy OK
Track 3
Filename D:\Bobby Timmons - In Person (1961)[FLAC]{OJC}\03 - Goodbye.wav
Peak level 99.0 %
Track quality 100.0 %
Test CRC 6FDD2CF2
Copy CRC 6FDD2CF2
Copy OK
Track 4
Filename D:\Bobby Timmons - In Person (1961)[FLAC]{OJC}\04 - Dat Dere (Theme).wav
Pre-gap length 0:00:00.01
Peak level 97.0 %
Track quality 100.0 %
Test CRC 5AFAD05E
Copy CRC 5AFAD05E
Copy OK
Track 5
Filename D:\Bobby Timmons - In Person (1961)[FLAC]{OJC}\05 - They Didn't Believe Me.wav
Peak level 100.0 %
Track quality 100.0 %
Test CRC 34F5FAC8
Copy CRC 34F5FAC8
Copy OK
Track 6
Filename D:\Bobby Timmons - In Person (1961)[FLAC]{OJC}\06 - Dat Dere.wav
Pre-gap length 0:00:00.73
Peak level 100.0 %
Track quality 100.0 %
Test CRC 0AD3AF53
Copy CRC 0AD3AF53
Copy OK
Track 7
Filename D:\Bobby Timmons - In Person (1961)[FLAC]{OJC}\07 - Popsy.wav
Pre-gap length 0:00:01.01
Peak level 100.0 %
Track quality 100.0 %
Test CRC A5714200
Copy CRC A5714200
Copy OK
Track 8
Filename D:\Bobby Timmons - In Person (1961)[FLAC]{OJC}\08 - I Didn't Know What Time It Was.wav
Pre-gap length 0:00:00.02
Peak level 100.0 %
Track quality 100.0 %
Test CRC BA257E6B
Copy CRC BA257E6B
Copy OK
Track 9
Filename D:\Bobby Timmons - In Person (1961)[FLAC]{OJC}\09 - Softly, As In A Morning Sunrise.wav
Pre-gap length 0:00:00.01
Peak level 100.0 %
Track quality 100.0 %
Test CRC 8C3882B1
Copy CRC 8C3882B1
Copy OK
Track 10
Filename D:\Bobby Timmons - In Person (1961)[FLAC]{OJC}\10 - Dat Dere.wav
Pre-gap length 0:00:00.01
Peak level 94.5 %
Track quality 100.0 %
Test CRC AAE776C6
Copy CRC AAE776C6
Copy OK
No errors occured
End of status report
Приватный:
Нет (DHT включён)
Размер:
344.90 Мб (361,649,779 байт) » файлов: 19
Участники:
0 раздают, 0 качают (0 участников всего)
Внешние участники:
3 раздают, 1 качают (4 участников всего) [ Обновить ]
12:43
136
Нет комментариев. Ваш будет первым!