Поиск

1961 (1990) Miles Davis - Someday My Prince Will Come {Mobile Fidelity MFCD 828}

1961 (1990) Miles Davis - Someday My Prince Will Come {Mobile Fidelity MFCD 828}
Страна-производитель диска (релиза):
USA
Дата записи диска:
7-21 марта 1961
Дата издания диска:
декабрь 1961
Дата переиздания диска:
1990
Издатель (лейбл):
Номер по каталогу:
MFCD 828
Носитель:
CD
Битрейт аудио:
lossless
Аудиокодек:
FLAC (*.flac)
Тип рипа:
tracks+.cue
Время звучания:
42:18
Наличие сканов:
  • web
Релизёр (источник):
waffles
Треклист:

01. Someday My Prince Will Come (Churchill-Morey) - 9:11
02. Old Folks (Hill-Robison) - 5:21
03. Pfrancing (Davis) - 8:36
04. Drad-Dog (Davis) - 4:35
05. Teo (Davis) - 9:39
06. I Thought About You (Mercer-Van Heusen) - 4:56

Состав:

Записано в:

  • Columbia 30th Street Studio, New York on March 7 (#3,4), March 20 (#1,2) and March 21 (#5,6), 1961.
Лог создания рипа
Exact Audio Copy V0.99 prebeta 4 from 23. January 2008

EAC extraction logfile from 21. May 2009, 13:24

Miles Davis / Someday My Prince Will Come [MFCD 828]

Used drive  : TSSTcorpCDDVDW SH-S202G   Adapter: 3  ID: 0

Read mode               : Secure
Utilize accurate stream : Yes
Defeat audio cache      : Yes
Make use of C2 pointers : No

Read offset correction                      : 6
Overread into Lead-In and Lead-Out          : No
Fill up missing offset samples with silence : Yes
Delete leading and trailing silent blocks   : No
Null samples used in CRC calculations       : Yes
Used interface                              : Native Win32 interface for Win NT & 2000
Gap handling                                : Appended to previous track

Used output format              : User Defined Encoder
Selected bitrate                : 224 kBit/s
Quality                         : High
Add ID3 tag                     : No
Command line compressor         : D:\Program Files\FLAC\flac.exe
Additional command line options : -V -8 -T "artist=%a" -T "title=%t" -T "album=%g" -T "date=%y" -T "tracknumber=%n" -T "genre=%m" %s

TOC of the extracted CD

     Track |   Start  |  Length  | Start sector | End sector
    ---------------------------------------------------------
        1  |  0:00.00 |  9:10.50 |         0    |    41299
        2  |  9:10.50 |  5:20.50 |     41300    |    65349
        3  | 14:31.25 |  8:36.00 |     65350    |   104049
        4  | 23:07.25 |  4:35.00 |    104050    |   124674
        5  | 27:42.25 |  9:39.00 |    124675    |   168099
        6  | 37:21.25 |  4:56.12 |    168100    |   190311

Track  1

     Filename G:\My Music\incomplete\Miles Davis - 1961 - Someday My Prince Will Come [MFCD 828]\01 - Someday My Prince Will Come.wav

     Pre-gap length  0:00:02.00

     Peak level 70.8 %
     Track quality 100.0 %
     Test CRC 2E21C1A9
     Copy CRC 2E21C1A9
     Cannot be verified as accurate (confidence 6)  [E0D77A7A], AccurateRip returned [A0E324A1]
     Copy OK

Track  2

     Filename G:\My Music\incomplete\Miles Davis - 1961 - Someday My Prince Will Come [MFCD 828]\02 - Old Folks.wav

     Pre-gap length  0:00:03.33

     Peak level 62.2 %
     Track quality 100.0 %
     Test CRC 874C6DD0
     Copy CRC 874C6DD0
     Cannot be verified as accurate (confidence 6)  [5AB1965D], AccurateRip returned [C90643B5]
     Copy OK

Track  3

     Filename G:\My Music\incomplete\Miles Davis - 1961 - Someday My Prince Will Come [MFCD 828]\03 - Pfrancing.wav

     Pre-gap length  0:00:02.14

     Peak level 71.6 %
     Track quality 100.0 %
     Test CRC EFC2A397
     Copy CRC EFC2A397
     Cannot be verified as accurate (confidence 6)  [8FC1FE9C], AccurateRip returned [5D0A7A5A]
     Copy OK

Track  4

     Filename G:\My Music\incomplete\Miles Davis - 1961 - Someday My Prince Will Come [MFCD 828]\04 - Drad-Dog.wav

     Pre-gap length  0:00:01.90

     Peak level 66.7 %
     Track quality 100.0 %
     Test CRC 95480B7A
     Copy CRC 95480B7A
     Cannot be verified as accurate (confidence 6)  [7551C641], AccurateRip returned [477346F3]
     Copy OK

Track  5

     Filename G:\My Music\incomplete\Miles Davis - 1961 - Someday My Prince Will Come [MFCD 828]\05 - Teo.wav

     Pre-gap length  0:00:03.33

     Peak level 77.1 %
     Track quality 100.0 %
     Test CRC CC3E8C2F
     Copy CRC CC3E8C2F
     Cannot be verified as accurate (confidence 6)  [AF0ACCA7], AccurateRip returned [261837CA]
     Copy OK

Track  6

     Filename G:\My Music\incomplete\Miles Davis - 1961 - Someday My Prince Will Come [MFCD 828]\06 - I Thought About You.wav

     Pre-gap length  0:00:02.33

     Peak level 78.7 %
     Track quality 100.0 %
     Test CRC 12D3B023
     Copy CRC 12D3B023
     Cannot be verified as accurate (confidence 6)  [4B905F30], AccurateRip returned [9C7DF8BE]
     Copy OK

No tracks could be verified as accurate
You may have a different pressing from the one(s) in the database

No errors occurred

End of status report
Содержание индексной карты (.CUE)
REM GENRE Jazz
REM DATE 1961
REM DISCID 5109E906
REM COMMENT "ExactAudioCopy v0.99pb4"
PERFORMER "Miles Davis"
TITLE "Someday My Prince Will Come"
FILE "01 - Someday My Prince Will Come.wav" WAVE
  TRACK 01 AUDIO
    TITLE "Someday My Prince Will Come"
    PERFORMER "Miles Davis"
    INDEX 01 00:00:00
  TRACK 02 AUDIO
    TITLE "Old Folks"
    PERFORMER "Miles Davis"
    INDEX 00 09:07:25
FILE "02 - Old Folks.wav" WAVE
    INDEX 01 00:00:00
  TRACK 03 AUDIO
    TITLE "Pfrancing"
    PERFORMER "Miles Davis"
    INDEX 00 05:18:39
FILE "03 - Pfrancing.wav" WAVE
    INDEX 01 00:00:00
  TRACK 04 AUDIO
    TITLE "Drad-Dog"
    PERFORMER "Miles Davis"
    INDEX 00 08:34:07
FILE "04 - Drad-Dog.wav" WAVE
    INDEX 01 00:00:00
  TRACK 05 AUDIO
    TITLE "Teo"
    PERFORMER "Miles Davis"
    INDEX 00 04:31:50
FILE "05 - Teo.wav" WAVE
    INDEX 01 00:00:00
  TRACK 06 AUDIO
    TITLE "I Thought About You"
    PERFORMER "Miles Davis"
    INDEX 00 09:36:50
FILE "06 - I Thought About You.wav" WAVE
    INDEX 01 00:00:00
Лог проверки качества
[CUETools log; Date: 02.10.2017 20:37:40; Version: 2.1.5]
[CTDB TOCID: ovwGr6InXm0iRmnvY19cTHXGqHY-] found.
Track | CTDB Status
  1   | ( 1/35) Accurately ripped, or (29/35) differs in 2 samples @00:00:66
  2   | (34/35) Accurately ripped
  3   | (35/35) Accurately ripped
  4   | (35/35) Accurately ripped
  5   | (33/35) Accurately ripped
  6   | (34/35) Accurately ripped
[AccurateRip ID: 000a961b-0037d502-5109e906] found.
Track   [  CRC   |   V2   ] Status
 01     [e0d77a7a|39a8ba32] (02+03/60) Accurately ripped
 02     [5ab1965d|0b1c8ed4] (02+03/60) Accurately ripped
 03     [8fc1fe9c|84b76b26] (02+03/61) Accurately ripped
 04     [7551c641|7208e874] (02+03/60) Accurately ripped
 05     [af0acca7|dd4d7ba1] (02+03/60) Accurately ripped
 06     [4b905f30|09f2ac4d] (02+03/60) Accurately ripped
Offsetted by -436:
 01     [0673fc9e] (00/60) No match (V2 was not tested)
 02     [04be8d23] (02/60) Accurately ripped
 03     [ab742b01] (02/61) Accurately ripped
 04     [833ad6cb] (02/60) Accurately ripped
 05     [0a3c05d1] (02/60) Accurately ripped
 06     [9d4b6d0f] (02/60) Accurately ripped
Offsetted by -195:
 01     [2034c2c5] (00/60) No match (V2 was not tested)
 02     [494ea4ea] (03/60) Accurately ripped
 03     [0d61952a] (03/61) Accurately ripped
 04     [7c8e99c9] (03/60) Accurately ripped
 05     [1d711928] (03/60) Accurately ripped
 06     [a01fa282] (03/60) Accurately ripped
Offsetted by -53:
 01     [5b88426e] (00/60) No match (V2 was not tested)
 02     [6e77cf80] (07/60) Accurately ripped
 03     [8e2b57f5] (08/61) Accurately ripped
 04     [93a33bf7] (07/60) Accurately ripped
 05     [990cc6ad] (07/60) Accurately ripped
 06     [595ed8d3] (07/60) Accurately ripped
Offsetted by 236:
 01     [186c33a1] (00/60) No match (V2 was not tested)
 02     [c90643b5] (18/60) Accurately ripped
 03     [5d0a7a5a] (18/61) Accurately ripped
 04     [477346f3] (18/60) Accurately ripped
 05     [261837ca] (18/60) Accurately ripped
 06     [9c7df8be] (18/60) Accurately ripped
Offsetted by 242:
 01     [bbd3ef71] (00/60) No match (V2 was not tested)
 02     [c1edd4af] (00/60) No match (V2 was not tested)
 03     [7e110370] (00/61) No match (V2 was not tested)
 04     [7cede8c6] (00/60) No match (V2 was not tested)
 05     [405e70c7] (00/60) No match (V2 was not tested)
 06     [87df4c42] (00/60) No match (V2 was not tested)

Track Peak [ CRC32  ] [W/O NULL] [  LOG   ]
 --   78,7 [B5D7C318] [A9AF6B21]
 01   70,8 [2E21C1A9] [D5DA8C86]   CRC32
 02   62,2 [874C6DD0] [1F5A2F03]   CRC32
 03   71,6 [EFC2A397] [DDF25CD8]   CRC32
 04   66,7 [95480B7A] [F28B8848]   CRC32
 05   77,1 [CC3E8C2F] [34554528]   CRC32
 06   78,7 [12D3B023] [F5084759]   CRC32
00:44
45
RSS
Нет комментариев. Ваш будет первым!