Поиск

1961 (1990) Cannonball Adderley Quintet - The Quintet Plus

1961 (1990) Cannonball Adderley Quintet - The Quintet Plus
Страна-производитель диска (релиза):
USA
Дата записи диска:
11 мая 1961
Дата издания диска:
ноябрь 1961
Дата переиздания диска:
1990
Номер по каталогу:
OJCCD - 3062
Носитель:
CD
Битрейт аудио:
lossless
Аудиокодек:
FLAC (*.flac)
Тип рипа:
tracks
Время звучания:
42:11
Наличие сканов:
  • нет
Релизёр (источник):
parvans
Треклист:
01 - Arriving Soon [8:10]
02 - Well, You Needn't [6:27]
03 - New Delhi [6:56]
04 - Winetone [6:59]
05 - Star Eyes [7:05]
06 - Lisa [6:41]
Состав:

Recorded in New York on May 11, 1961.
Recorded and mastered at Plaza Sound Studios.
Originally released on Riverside (9388).
Includes liner notes by Ed Sherman and Orrin Keepnews.
Bill Grauer Productions Inc. New York City.
Remastered 1987 (Fantasy Studios, Berkeley)
Лог создания рипа
EAC extraction logfile from 4. May 2007, 19:02 for CD
The Cannonball Adderley Quintet / Plus
Used drive : LITE-ON LTR-48246K Adapter: 1 ID: 0
Read mode : Secure with NO C2, accurate stream, disable cache
Read offset correction : 6
Overread into Lead-In and Lead-Out : No
Used output format : C:\Program Files\FLAC\flac.exe (User Defined Encoder) 128 kBit/s Additional command line options : -8 -V -T "ARTIST=%a" -T "TITLE=%t" -T "ALBUM=%g" -T "DATE=%y" -T "TRACKNUMBER=%n" -T "GENRE=%m" -T "COMMENT=EAC Flac 1.1.4 -8" %s
Other options : Fill up missing offset samples with silence : Yes Delete leading and trailing silent blocks : No Native Win32 interface for Win NT & 2000
Track 1 Filename C:\The Cannonball Adderley Quintet - Plus (1961) [FLAC]\01 - Arriving Soon.wav Pre-gap length 0:00:02.00 Peak level 98.6 % Track quality 100.0 % Test CRC AE4178F7 Copy CRC AE4178F7 Copy OK
Track 2 Filename C:\The Cannonball Adderley Quintet - Plus (1961) [FLAC]\02 - Well, You Needn't.wav Pre-gap length 0:00:02.00 Peak level 96.8 % Track quality 100.0 % Test CRC F0F6E5A6 Copy CRC F0F6E5A6 Copy OK
Track 3 Filename C:\The Cannonball Adderley Quintet - Plus (1961) [FLAC]\03 - New Delhi.wav Pre-gap length 0:00:02.00 Peak level 97.0 % Track quality 99.9 % Test CRC 16316442 Copy CRC 16316442 Copy OK
Track 4 Filename C:\The Cannonball Adderley Quintet - Plus (1961) [FLAC]\04 - Winetone.wav Pre-gap length 0:00:02.00 Peak level 100.0 % Track quality 99.9 % Test CRC B44B3105 Copy CRC B44B3105 Copy OK
Track 5 Filename C:\The Cannonball Adderley Quintet - Plus (1961) [FLAC]\05 - Star Eyes.wav Pre-gap length 0:00:02.00 Peak level 99.3 % Track quality 100.0 % Test CRC 78D0EE21 Copy CRC 78D0EE21 Copy OK
Track 6 Filename C:\The Cannonball Adderley Quintet - Plus (1961) [FLAC]\06 - Lisa.wav Pre-gap length 0:00:02.00 Peak level 97.8 % Track quality 100.0 % Test CRC 89966293 Copy CRC 89966293 Copy OK
No errors occured
End of status report
Содержание индексной карты (.CUE)
REM GENRE Jazz
REM DATE 1961
REM DISCID 5509EA06
REM COMMENT "ExactAudioCopy v0.95b4"
PERFORMER "The Cannonball Adderley Quintet"
TITLE "Plus"
FILE "01 - Arriving Soon.wav" WAVE TRACK 01 AUDIO TITLE "Arriving Soon" PERFORMER "The Cannonball Adderley Quintet" INDEX 01 00:00:00 TRACK 02 AUDIO TITLE "Well, You Needn't" PERFORMER "The Cannonball Adderley Quintet" INDEX 00 08:08:15
FILE "02 - Well, You Needn't.wav" WAVE INDEX 01 00:00:00 TRACK 03 AUDIO TITLE "New Delhi" PERFORMER "The Cannonball Adderley Quintet" INDEX 00 06:24:41
FILE "03 - New Delhi.wav" WAVE INDEX 01 00:00:00 TRACK 04 AUDIO TITLE "Winetone" PERFORMER "The Cannonball Adderley Quintet" INDEX 00 06:54:28
FILE "04 - Winetone.wav" WAVE INDEX 01 00:00:00 TRACK 05 AUDIO TITLE "Star Eyes" PERFORMER "The Cannonball Adderley Quintet" INDEX 00 06:57:25
FILE "05 - Star Eyes.wav" WAVE INDEX 01 00:00:00 TRACK 06 AUDIO TITLE "Lisa" PERFORMER "The Cannonball Adderley Quintet" INDEX 00 07:03:19
FILE "06 - Lisa.wav" WAVE INDEX 01 00:00:00
Лог проверки качества
<spoiler title="CUETools log">[CUETools log; Date: 19.11.2012 0:55:14; Version: 2.1.4]
[CTDB TOCID: R3lpyUqiDGSRZEsIS7LflK64nN4-] disk not present in database.
[AccurateRip ID: 000a5b1f-0036de25-5509ea06] found.
Track [ CRC | V2 ] Status 01 [589ec889|f6adcf1f] (11+02/13) Accurately ripped 02 [c45f7c78|b68b49fa] (11+02/13) Accurately ripped 03 [12a9ff60|224f3c1a] (10+02/12) Accurately ripped 04 [dfe87f9c|9753cbea] (11+02/13) Accurately ripped 05 [c5639345|24737a42] (11+02/13) Accurately ripped 06 [796e9f7d|8dc6f89a] (02+00/12) Accurately ripped
Track Peak [ CRC32 ] [W/O NULL] [ LOG ] -- 100,0 [366B4988] [B7F1B5CA] 01 98,6 [AE4178F7] [B462F4D7] CRC32 02 96,8 [F0F6E5A6] [72AB4783] CRC32 03 97,0 [16316442] [E725DD10] CRC32 04 100,0 [B44B3105] [B876BFCC] CRC32 05 99,3 [78D0EE21] [8DBDBFB3] CRC32 06 97,8 [89966293] [281A3FB1] CRC32</spoiler>
Приватный:
Да (DHT отключён)
Размер:
259.60 Мб (272,207,389 байт) » файлов: 11
Участники:
0 раздают, 0 качают (0 участников всего)
Внешние участники:
2 раздают, 1 качают (3 участников всего) [ Обновить ]
23:18
35
RSS
Нет комментариев. Ваш будет первым!