Вы используете незарегистрированную версию компонента "Вкладки"!

Поиск

1960 Art Pepper - Intensity (2017) {DCC Jazz} [24-44,1]

1960 Art Pepper - Intensity (2017) {DCC Jazz} [24-44,1]
Дата записи диска:
23-25 ноября 1960
Место записи:
Cotemporary Records Studio Los Angeles, CA
Издатель (лейбл):
Доп. инфо:

Формат записи/Источник записи: [TR24][OF]
Издание: Remastered
Год издания/переиздания диска: 1960/2017
Издатель (лейбл): DCC Jazz
Продолжительность: 00:47:58
Наличие сканов в содержимом раздачи: Нет

Контейнер: FLAC (*.flac)
Тип рипа: tracks
Разрядность: 24/44,1
Количество каналов: 2.0

Источник (релизер): Qobuz

Лог проверки качества
foobar2000 1.4.3 / Dynamic Range Meter 1.1.1
log date: 2020-02-02 22:40:40

--------------------------------------------------------------------------------
Analyzed: Art Pepper / Intensity
--------------------------------------------------------------------------------

DR         Peak         RMS     Duration Track
--------------------------------------------------------------------------------
DR17      -1.20 dB   -21.06 dB      4:23 01-I Can't Believe That You're in Love with Me
DR16      -1.20 dB   -21.06 dB      5:25 02-I Love You
DR16      -3.53 dB   -24.29 dB      4:47 03-Come Rain or Come Shine
DR17      -1.20 dB   -21.20 dB      4:23 04-Long Ago (And Far Away)
DR17      -1.24 dB   -21.26 dB      5:51 05-Gone With the Wind
DR16      -1.17 dB   -21.29 dB      4:55 06-I Wished On the Moon
DR17      -1.17 dB   -21.96 dB      6:45 07-Too Close for Comfort
DR17      -1.24 dB   -22.08 dB     11:34 08-Five Points
--------------------------------------------------------------------------------

Number of tracks:  8
Official DR value: DR17

Samplerate:        44100 Hz
Channels:          2
Bits per sample:   24
Bitrate:           1624 kbps
Codec:             FLAC
================================================================================
Any questions - support@pro-jazz.com. Есть вопросы - support@pro-jazz.com
22:29
328
Нет комментариев. Ваш будет первым!