Поиск

1960 (2017) Thelonious Monk - Les Liaisons Dangereuses (2СD)

1960 (2017) Thelonious Monk - Les Liaisons Dangereuses (2СD)
Страна-производитель диска (релиза):
France
Дата записи диска:
27 июля 1959
Дата издания диска:
2017
Номер по каталогу:
SRS-1-LE
Носитель:
CD
Битрейт аудио:
lossless
Аудиокодек:
FLAC (*.flac)
Тип рипа:
tracks+.cue
Время звучания:
01:23:48
Наличие сканов:
  • да
Релизёр (источник):
notdarkyet @ redacted.ch
Треклист:

Disc 1:
01. Rhythm-a-Ning
02. Crepuscule with Nellie
03. Six in One
04. Well, You Needn't
05. Pannonica (solo)
06. Pannonica (solo)
07. Pannonica (quartet)
08. Ba-Lue Bolivar Ba-Lues-Are
09. Light Blue
10. We'll Understand It Better By and By
Disc 2:
01. Rhythm-a-Ning
02. Crepuscule with Nellie
03. Pannonica
04. Light Blue
05. Well, You Needn't (unedited)
06. Light Blue (making of)

Состав:

Recorded at: Nola Penthouse Sound Studios, 111 W. 57th St., New York, Monday, July 27, 1959
Единственный раз, когда музыка Монка использовалась в кино — саундтрек к фильму режиссёра Роже Вадима (Roger Vadim) «Les Liaisons Dangereuses». Картина вышла на экраны в 1960 и позднее была адаптирована в ещё один фильм, также ставший классикой кинематографа, «Cruel Intentions». Саундтрек не был доступен в качестве отдельного издания вне контекста фильма, который уже долгое время не переиздавался.
Лог создания рипа
<spoiler title="Логи создания рипа"><spoiler title="CD01"><pre>Exact Audio Copy V1.3 from 2. September 2016
EAC extraction logfile from 22. May 2017, 18:34
Thelonious Monk / Les liaisons dangereuses 1960
Used drive : HL-DT-STDVD-RAM GH40N Adapter: 1 ID: 0
Read mode : Secure
Utilize accurate stream : Yes
Defeat audio cache : Yes
Make use of C2 pointers : No
Read offset correction : 667
Overread into Lead-In and Lead-Out : No
Fill up missing offset samples with silence : Yes
Delete leading and trailing silent blocks : No
Null samples used in CRC calculations : Yes
Used interface : Native Win32 interface for Win NT & 2000
Gap handling : Appended to previous track
Used output format : User Defined Encoder
Selected bitrate : 1024 kBit/s
Quality : High
Add ID3 tag : No
Command line compressor : C:\Flac\win64\flac.exe
Additional command line options : -8 -e -p -V -T "ARTIST=%artist%" -T "TITLE=%title%" -T "ALBUM=%albumtitle%" -T "DATE=%year%" -T "TRACKNUMBER=%tracknr%" -T "GENRE=%genre%" -T "PERFORMER=%albuminterpret%" -T "COMPOSER=%composer%" %haslyrics%--tag-from-file=LYRICS="%lyricsfile%"%haslyrics% -T "ALBUMARTIST=%albumartist%" -T "DISCNUMBER=%cdnumber%" -T "TOTALDISCS=%totalcds%" -T "TOTALTRACKS=%numtracks%" -T "COMMENT=%comment%" %source% -o %dest%
TOC of the extracted CD Track | Start | Length | Start sector | End sector --------------------------------------------------------- 1 | 0:00.00 | 5:47.28 | 0 | 26052 2 | 5:47.28 | 5:15.53 | 26053 | 49730 3 | 11:03.06 | 4:28.19 | 49731 | 69849 4 | 15:31.25 | 4:56.53 | 69850 | 92102 5 | 20:28.03 | 2:27.24 | 92103 | 103151 6 | 22:55.27 | 2:54.46 | 103152 | 116247 7 | 25:49.73 | 6:19.54 | 116248 | 144726 8 | 32:09.52 | 6:56.40 | 144727 | 175966 9 | 39:06.17 | 2:47.26 | 175967 | 188517 10 | 41:53.43 | 1:46.67 | 188518 | 196534
Track 1 Filename E:\2017 HDD\To Move\Thelonious Monk - Les liaisons dangereuses 1960 [Disc One]\01 Rhythm a Ning.wav Pre-gap length 0:00:02.00 Peak level 94.4 % Extraction speed 3.6 X Track quality 100.0 % Test CRC 4D673ABC Copy CRC 4D673ABC Track not present in AccurateRip database Copy OK
Track 2 Filename E:\2017 HDD\To Move\Thelonious Monk - Les liaisons dangereuses 1960 [Disc One]\02 Crepuscule With Nellie.wav Peak level 91.8 % Extraction speed 3.4 X Track quality 99.9 % Test CRC B345B68C Copy CRC B345B68C Track not present in AccurateRip database Copy OK
Track 3 Filename E:\2017 HDD\To Move\Thelonious Monk - Les liaisons dangereuses 1960 [Disc One]\03 Six In One.wav Peak level 91.3 % Extraction speed 3.5 X Track quality 99.9 % Test CRC C5D06C99 Copy CRC C5D06C99 Track not present in AccurateRip database Copy OK
Track 4 Filename E:\2017 HDD\To Move\Thelonious Monk - Les liaisons dangereuses 1960 [Disc One]\04 Well, You Needn't.wav Peak level 85.6 % Extraction speed 4.6 X Track quality 100.0 % Test CRC BAC82A5A Copy CRC BAC82A5A Track not present in AccurateRip database Copy OK
Track 5 Filename E:\2017 HDD\To Move\Thelonious Monk - Les liaisons dangereuses 1960 [Disc One]\05 Pannonica (Solo).wav Peak level 92.4 % Extraction speed 4.2 X Track quality 100.0 % Test CRC B9CAC25B Copy CRC B9CAC25B Track not present in AccurateRip database Copy OK
Track 6 Filename E:\2017 HDD\To Move\Thelonious Monk - Les liaisons dangereuses 1960 [Disc One]\06 Pannonica (Solo).wav Peak level 88.1 % Extraction speed 3.4 X Track quality 99.9 % Test CRC 9B3B83FD Copy CRC 9B3B83FD Track not present in AccurateRip database Copy OK
Track 7 Filename E:\2017 HDD\To Move\Thelonious Monk - Les liaisons dangereuses 1960 [Disc One]\07 Pannonica (Quartet).wav Peak level 93.8 % Extraction speed 4.9 X Track quality 100.0 % Test CRC 9C632D09 Copy CRC 9C632D09 Track not present in AccurateRip database Copy OK
Track 8 Filename E:\2017 HDD\To Move\Thelonious Monk - Les liaisons dangereuses 1960 [Disc One]\08 Ba-Lue Bolivar Ba-Lues-Aer.wav Peak level 98.2 % Extraction speed 5.5 X Track quality 100.0 % Test CRC 6B1A6EA0 Copy CRC 6B1A6EA0 Track not present in AccurateRip database Copy OK
Track 9 Filename E:\2017 HDD\To Move\Thelonious Monk - Les liaisons dangereuses 1960 [Disc One]\09 Light Blue.wav Peak level 98.4 % Extraction speed 5.2 X Track quality 100.0 % Test CRC D2AEC7BD Copy CRC D2AEC7BD Track not present in AccurateRip database Copy OK
Track 10 Filename E:\2017 HDD\To Move\Thelonious Monk - Les liaisons dangereuses 1960 [Disc One]\10 By And By (We'll Understand It Better By And By).wav Peak level 96.9 % Extraction speed 3.6 X Track quality 99.9 % Test CRC 48087841 Copy CRC 48087841 Track not present in AccurateRip database Copy OK
None of the tracks are present in the AccurateRip database
No errors occurred
End of status report
---- CUETools DB Plugin V2.1.6
[CTDB TOCID: AEiVRKQpqxzi5qA7NK5kzZ5JL10-] disk not present in database
Submit result: AEiVRKQpqxzi5qA7NK5kzZ5JL10- has been uploaded
==== Log checksum 43C866F1A57EDF83AF77F179757299333425499AE8779562CF2349F25A3A23F5 ====</pre></spoiler><spoiler title="CD02"><pre>Exact Audio Copy V1.3 from 2. September 2016
EAC extraction logfile from 22. May 2017, 20:48
Thelonious Monk / Les liaisons dangereuses 1970
Used drive : HL-DT-STDVD-RAM GH40N Adapter: 1 ID: 0
Read mode : Secure
Utilize accurate stream : Yes
Defeat audio cache : Yes
Make use of C2 pointers : No
Read offset correction : 667
Overread into Lead-In and Lead-Out : No
Fill up missing offset samples with silence : Yes
Delete leading and trailing silent blocks : No
Null samples used in CRC calculations : Yes
Used interface : Native Win32 interface for Win NT & 2000
Gap handling : Appended to previous track
Used output format : User Defined Encoder
Selected bitrate : 1024 kBit/s
Quality : High
Add ID3 tag : No
Command line compressor : C:\Flac\win64\flac.exe
Additional command line options : -8 -e -p -V -T "ARTIST=%artist%" -T "TITLE=%title%" -T "ALBUM=%albumtitle%" -T "DATE=%year%" -T "TRACKNUMBER=%tracknr%" -T "GENRE=%genre%" -T "PERFORMER=%albuminterpret%" -T "COMPOSER=%composer%" %haslyrics%--tag-from-file=LYRICS="%lyricsfile%"%haslyrics% -T "ALBUMARTIST=%albumartist%" -T "DISCNUMBER=%cdnumber%" -T "TOTALDISCS=%totalcds%" -T "TOTALTRACKS=%numtracks%" -T "COMMENT=%comment%" %source% -o %dest%
TOC of the extracted CD Track | Start | Length | Start sector | End sector --------------------------------------------------------- 1 | 0:00.00 | 5:35.63 | 0 | 25187 2 | 5:35.63 | 2:28.49 | 25188 | 36336 3 | 8:04.37 | 6:52.56 | 36337 | 67292 4 | 14:57.18 | 4:09.33 | 67293 | 86000 5 | 19:06.51 | 6:47.31 | 86001 | 116556 6 | 25:54.07 | 14:13.43 | 116557 | 180574
Track 1 Filename E:\2017 HDD\To Move\Thelonious Monk - Les liaisons dangereuses 1960 [Disc Two]\01 Rhythm a Ning [Alternate].wav Pre-gap length 0:00:02.00 Peak level 94.2 % Extraction speed 3.5 X Track quality 100.0 % Test CRC 59BF686B Copy CRC 59BF686B Track not present in AccurateRip database Copy OK
Track 2 Filename E:\2017 HDD\To Move\Thelonious Monk - Les liaisons dangereuses 1960 [Disc Two]\02 Crepuscule With Nellie [Take 1].wav Peak level 86.6 % Extraction speed 3.3 X Track quality 100.0 % Test CRC F1059CB5 Copy CRC F1059CB5 Track not present in AccurateRip database Copy OK
Track 3 Filename E:\2017 HDD\To Move\Thelonious Monk - Les liaisons dangereuses 1960 [Disc Two]\03 Pannonica [45 Master].wav Peak level 94.0 % Extraction speed 4.4 X Track quality 100.0 % Test CRC B6724BBC Copy CRC B6724BBC Track not present in AccurateRip database Copy OK
Track 4 Filename E:\2017 HDD\To Move\Thelonious Monk - Les liaisons dangereuses 1960 [Disc Two]\04 Light Blue [45 Master].wav Peak level 91.6 % Extraction speed 4.5 X Track quality 100.0 % Test CRC 4AC635C8 Copy CRC 4AC635C8 Track not present in AccurateRip database Copy OK
Track 5 Filename E:\2017 HDD\To Move\Thelonious Monk - Les liaisons dangereuses 1960 [Disc Two]\05 Well, You Needn't [Unedited].wav Peak level 90.3 % Extraction speed 5.1 X Track quality 100.0 % Test CRC F1E71EA8 Copy CRC F1E71EA8 Track not present in AccurateRip database Copy OK
Track 6 Filename E:\2017 HDD\To Move\Thelonious Monk - Les liaisons dangereuses 1960 [Disc Two]\06 Light Blue [Making Of].wav Peak level 94.9 % Extraction speed 5.5 X Track quality 99.9 % Test CRC 2BDA4B81 Copy CRC 2BDA4B81 Track not present in AccurateRip database Copy OK
None of the tracks are present in the AccurateRip database
No errors occurred
End of status report
---- CUETools DB Plugin V2.1.6
[CTDB TOCID: 54ClfbgVGKgGWsViPxcwWM_Nu3k-] disk not present in database
Submit result: 54ClfbgVGKgGWsViPxcwWM_Nu3k- has been uploaded
==== Log checksum 84889347FB51DFD1AF4759248991A79447842430588B49738CB233306103E013 ====</pre></spoiler></spoiler>
Приватный:
Нет (DHT включён)
Размер:
443.85 Мб (465,412,649 байт) » файлов: 23
Участники:
0 раздают, 0 качают (0 участников всего)
Внешние участники:
10 раздают, 3 качают (13 участников всего) [ Обновить ]
11:29
172
RSS
Нет комментариев. Ваш будет первым!