Поиск

1960 (1997) Art Pepper - Intensity {DCC GZS-1114}

1960 (1997) Art Pepper - Intensity {DCC GZS-1114}
Страна-производитель диска (релиза):
USA
Дата записи диска:
23-25 ноября 1960
Дата издания диска:
1960
Дата переиздания диска:
22 июля 1997
Издатель (лейбл):
Номер по каталогу:
GZS-1114
Носитель:
CD
Битрейт аудио:
lossless
Аудиокодек:
FLAC (*.flac)
Тип рипа:
tracks+.cue
Время звучания:
48:19
Наличие сканов:
  • нет
Релизёр (источник):
DrLangly
Треклист:

01. "I Can't Believe That You're In Love With Me" [4:25]
02. "I Love You" [5:25]
03. "Come Rain Or Come Shine" [4:45]
04. "Long Ago (And Far Away)" [4:24]
05. "Gone With The Wind" [6:00]
06. "I Wished on the Moon" [5:37]
07. "Too Close For Comfort" [6:46]
08. "Five Points" [11:33]

Состав:
  • Alto Saxophone – Art Pepper
  • Bass – Jimmy Bond
  • Drums – Frank Butler
  • Engineer – Roy Du Nann*
  • Mastered By – Phil DeLancie*
  • Photography [Cover] – William Claxton
  • Piano – Dolo Coker
  • Producer, Liner Notes – Lester Koenig

Записано в 

  • Cotemporary Records Studio, Los Angeles, CA
Exact Audio Copy V0.99 prebeta 5 from 4. May 2009
EAC extraction logfile from 8. January 2010, 23:27
Art Pepper / Intensity (DCC GZS-1114)
Used drive : LITE-ON DVDRW LDW-811S Adapter: 1 ID: 0
Read mode : Secure
Utilize accurate stream : Yes
Defeat audio cache : Yes
Make use of C2 pointers : No
Read offset correction : 12
Overread into Lead-In and Lead-Out : No
Fill up missing offset samples with silence : Yes
Delete leading and trailing silent blocks : No
Null samples used in CRC calculations : Yes
Used interface : Native Win32 interface for Win NT & 2000
Gap handling : Appended to previous track
Used output format : User Defined Encoder
Selected bitrate : 128 kBit/s
Quality : High
Add ID3 tag : No
Command line compressor : C:\Program Files\FLAC\bin\flac.exe
Additional command line options : -8 -V -T "ARTIST=%a" -T "TITLE=%t" -T "ALBUM=%g" -T "DATE=%y" -T "TRACKNUMBER=%n" -T "GENRE=%m" -T "COMMENT=EAC FLAC -8" %s
TOC of the extracted CD Track | Start | Length | Start sector | End sector --------------------------------------------------------- 1 | 0:00.00 | 4:29.47 | 0 | 20221 2 | 4:29.47 | 5:30.48 | 20222 | 45019 3 | 10:00.20 | 4:52.50 | 45020 | 66969 4 | 14:52.70 | 4:28.42 | 66970 | 87111 5 | 19:21.37 | 5:57.08 | 87112 | 113894 6 | 25:18.45 | 5:01.70 | 113895 | 136539 7 | 30:20.40 | 6:54.45 | 136540 | 167634 8 | 37:15.10 | 11:38.07 | 167635 | 219991
Track 1 Filename C:\Rip\01 - I Can't Believe that You're in Love with Me.wav Pre-gap length 0:00:02.00 Peak level 96.7 % Track quality 99.9 % Test CRC 0574D2FF Copy CRC 0574D2FF Accurately ripped (confidence 7) [347F2E20] Copy OK
Track 2 Filename C:\Rip\02 - I Love You.wav Pre-gap length 0:00:04.46 Peak level 79.2 % Track quality 100.0 % Test CRC 41404780 Copy CRC 41404780 Accurately ripped (confidence 7) [145D9514] Copy OK
Track 3 Filename C:\Rip\03 - Come Rain or Come Shine.wav Pre-gap length 0:00:05.17 Peak level 47.5 % Track quality 100.0 % Test CRC C8F1C21F Copy CRC C8F1C21F Accurately ripped (confidence 7) [D420E7A0] Copy OK
Track 4 Filename C:\Rip\04 - Long Ago (and Far Away).wav Pre-gap length 0:00:04.04 Peak level 86.0 % Track quality 100.0 % Test CRC 18F3E3D1 Copy CRC 18F3E3D1 Accurately ripped (confidence 7) [D0FACA22] Copy OK
Track 5 Filename C:\Rip\05 - Gone with the Wind.wav Pre-gap length 0:00:04.60 Peak level 61.2 % Track quality 100.0 % Test CRC FD154A7B Copy CRC FD154A7B Accurately ripped (confidence 7) [0128A987] Copy OK
Track 6 Filename C:\Rip\06 - I Wished on the Moon.wav Pre-gap length 0:00:05.81 Peak level 100.0 % Track quality 100.0 % Test CRC 7060FF98 Copy CRC 7060FF98 Accurately ripped (confidence 7) [C32E4CAF] Copy OK
Track 7 Filename C:\Rip\07 - Too Close for Comfort.wav Pre-gap length 0:00:04.57 Peak level 96.8 % Track quality 100.0 % Test CRC DDC99C36 Copy CRC DDC99C36 Accurately ripped (confidence 7) [B1053D5B] Copy OK
Track 8 Filename C:\Rip\08 - Five Points.wav Pre-gap length 0:00:07.50 Peak level 91.9 % Track quality 100.0 % Test CRC 0D43B516 Copy CRC 0D43B516 Accurately ripped (confidence 6) [DD4DCE58] Copy OK
All tracks accurately ripped
No errors occurred
End of status report
REM GENRE Jazz
REM DATE 1960
REM DISCID 570B7508
REM COMMENT "ExactAudioCopy v0.99pb5"
PERFORMER "Art Pepper"
TITLE "Intensity (DCC GZS-1114)"
FILE "01 - I Can't Believe that You're in Love with Me.wav" WAVE TRACK 01 AUDIO TITLE "I Can't Believe that You're in Love with Me" PERFORMER "Art Pepper" INDEX 01 00:00:00 TRACK 02 AUDIO TITLE "I Love You" PERFORMER "Art Pepper" INDEX 00 04:25:12
FILE "02 - I Love You.wav" WAVE INDEX 01 00:00:00 TRACK 03 AUDIO TITLE "Come Rain or Come Shine" PERFORMER "Art Pepper" INDEX 00 05:25:35
FILE "03 - Come Rain or Come Shine.wav" WAVE INDEX 01 00:00:00 TRACK 04 AUDIO TITLE "Long Ago (and Far Away)" PERFORMER "Art Pepper" INDEX 00 04:48:47
FILE "04 - Long Ago (and Far Away).wav" WAVE INDEX 01 00:00:00 TRACK 05 AUDIO TITLE "Gone with the Wind" PERFORMER "Art Pepper" INDEX 00 04:23:72
FILE "05 - Gone with the Wind.wav" WAVE INDEX 01 00:00:00 TRACK 06 AUDIO TITLE "I Wished on the Moon" PERFORMER "Art Pepper" INDEX 00 05:51:22
FILE "06 - I Wished on the Moon.wav" WAVE INDEX 01 00:00:00 TRACK 07 AUDIO TITLE "Too Close for Comfort" PERFORMER "Art Pepper" INDEX 00 04:57:27
FILE "07 - Too Close for Comfort.wav" WAVE INDEX 01 00:00:00 TRACK 08 AUDIO TITLE "Five Points" PERFORMER "Art Pepper" INDEX 00 06:47:07
FILE "08 - Five Points.wav" WAVE INDEX 01 00:00:00
Приватный:
Нет (DHT включён)
Размер:
287.73 Мб (301,704,533 байт) » файлов: 12
Участники:
0 раздают, 0 качают (0 участников всего)
Внешние участники:
5 раздают, 2 качают (7 участников всего) [ Обновить ]
Скорость:
Торрент не зарегистрирован на трекере
18:24
30
RSS
Нет комментариев. Ваш будет первым!