Поиск

1960 (1996) Art Blakey's Jazz Messengers - Lausanne 1960, 2nd Set (Swiss Radio Days Jazz Series Volume 6)

1960 (1996) Art Blakey's Jazz Messengers - Lausanne 1960, 2nd Set (Swiss Radio Days Jazz Series Volume 6)
Страна-производитель диска (релиза):
Switzerland
Дата записи диска:
8 декабря 1960
Дата издания диска:
1996
Номер по каталогу:
TCB 02062
Носитель:
CD
Аудиокодек:
FLAC (*.flac)
Тип рипа:
tracks
Битрейт аудио:
1
Время звучания:
56:29
Релизёр (источник):
mironov_ad
Треклист:

01. Announcement 1:30
02. It's Only a Paper Moon (Arlen, Harburg, Rose) 13:05
03. 'Round About Midnight (Hanighen, Monk, Williams) 10:59
04. The Summit (Shorter) 8:54
05. A Night in Tunisia (Gillespie, Paparelli) 11:10
06. This Here (Timmons) 10:49

Лог создания рипа
EAC extraction logfile from 31. May 2006, 18:08 for CD
Art Blakey And The Jazz Messengers / Lausanne 1960 2nd Set
Used drive : LITE-ON CD-ROM LTN-527T Adapter: 1 ID: 1
Read mode : Secure with NO C2, accurate stream, disable cache
Combined read/write offset correction : 12
Overread into Lead-In and Lead-Out : No
Used output format : C:\Program Files\FLAC\flac.exe (User Defined Encoder)
320 kBit/s
Additional command line options : -5 -V -T "artist=%a" -T "title=%t" -T "album=%g" -T "date=%y" -T "tracknumber=%n" -T "genre=%m" %s
Other options :
Fill up missing offset samples with silence : Yes
Delete leading and trailing silent blocks : No
Native Win32 interface for Win NT & 2000
Track 1
Filename D:\Downloads\Art Blakey - Lausanne 1960 2nd Set\01 - Intro.wav
Pre-gap length 0:00:02.40
Peak level 62.1 %
Track quality 100.0 %
Test CRC B1223A57
Copy CRC B1223A57
Copy OK
Track 2
Filename D:\Downloads\Art Blakey - Lausanne 1960 2nd Set\02 - Its Only A Papermoon.wav
Peak level 80.8 %
Track quality 100.0 %
Test CRC 711AD478
Copy CRC 711AD478
Copy OK
Track 3
Filename D:\Downloads\Art Blakey - Lausanne 1960 2nd Set\03 - Round About Midnight.wav
Peak level 75.3 %
Track quality 100.0 %
Test CRC D2D3F606
Copy CRC D2D3F606
Copy OK
Track 4
Filename D:\Downloads\Art Blakey - Lausanne 1960 2nd Set\04 - The Summit.wav
Peak level 76.2 %
Track quality 100.0 %
Test CRC E4181667
Copy CRC E4181667
Copy OK
Track 5
Filename D:\Downloads\Art Blakey - Lausanne 1960 2nd Set\05 - A Night In Tunisia.wav
Peak level 95.6 %
Track quality 99.9 %
Test CRC DCB81528
Copy CRC DCB81528
Copy OK
Track 6
Filename D:\Downloads\Art Blakey - Lausanne 1960 2nd Set\06 - This Here.wav
Peak level 72.3 %
Track quality 99.9 %
Test CRC 4423FB83
Copy CRC 4423FB83
Copy OK
No errors occured
End of status report
Скачивание доступно после регистрации!!
Приватный:
Нет (DHT включён)
Размер:
326.70 Мб (342,568,522 байт) » файлов: 19
Участники:
0 раздают, 0 качают (0 участников всего)
Внешние участники:
3 раздают, 1 качают (4 участников всего) [ Обновить ]
20:07
170
Нет комментариев. Ваш будет первым!