Поиск

1960 (1993) Horace Parlan - Headin' South {Blue Note TOCJ-4062}

1960 (1993) Horace Parlan - Headin' South {Blue Note TOCJ-4062}
Стили:
Страна-производитель диска (релиза):
Japan
Дата записи диска:
4 декабря 1960
Дата издания диска:
1993
Издатель (лейбл):
Номер по каталогу:
TOCJ-4062
Носитель:
CD
Битрейт аудио:
lossless
Аудиокодек:
FLAC (*.flac)
Тип рипа:
tracks+.cue
Время звучания:
41:46
Наличие сканов:
  • да
Релизёр (источник):
apollo
Треклист:

01. Headin' South (Parlan) - 4:31
02. The Song Is Ended (Berlin) - 5:55
03. Summertime (Gershwin) - 6:01
04. Low Down (Parlan) - 5:30
05. Congalegre (Barretto) - 4:24
06. Prelude to a Kiss (Ellington-Gordon-Mills) - 5:29
07. Jim Loves Sue (Jamal) - 4:34
08. My Mother's Eyes (Gilbert-Baer) - 5:22

Состав:
  • Ray Barretto Composer, Congas
  • Joe Goldberg Liner Notes
  • Al Harewood Drums
  • Horace Parlan Composer, Piano
  • George Tucker Bass
Лог создания рипа
<spoiler title="Лог создания рипа"><pre>Exact Audio Copy V1.3 from 2. September 2016
EAC extraction logfile from 12. November 2016, 15:26
Horace Parlan / Headin' South
Used drive : HL-DT-STDVDRAM GH24NS50 Adapter: 1 ID: 0
Read mode : Secure
Utilize accurate stream : Yes
Defeat audio cache : Yes
Make use of C2 pointers : No
Read offset correction : 667
Overread into Lead-In and Lead-Out : No
Fill up missing offset samples with silence : Yes
Delete leading and trailing silent blocks : No
Null samples used in CRC calculations : Yes
Used interface : Native Win32 interface for Win NT & 2000
Gap handling : Appended to previous track
Used output format : User Defined Encoder
Selected bitrate : 1024 kBit/s
Quality : High
Add ID3 tag : No
Command line compressor : C:\Program Files (x86)\Exact Audio Copy\FLAC\FLAC.EXE
Additional command line options : -8 -V -T "ARTIST=%artist%" -T "TITLE=%title%" -T "ALBUM=%albumtitle%" -T "DATE=%year%" -T "TRACKNUMBER=%tracknr%" -T "GENRE=%genre%" -T "PERFORMER=%albuminterpret%" -T "COMPOSER=%composer%" %haslyrics%--tag-from-file=LYRICS="%lyricsfile%"%haslyrics% -T "ALBUMARTIST=%albumartist%" -T "DISCNUMBER=%cdnumber%" -T "TOTALDISCS=%totalcds%" -T "TOTALTRACKS=%numtracks%" -T "COMMENT=%comment%" %source% -o %dest%
TOC of the extracted CD Track | Start | Length | Start sector | End sector --------------------------------------------------------- 1 | 0:00.00 | 4:30.52 | 0 | 20301 2 | 4:30.52 | 5:55.28 | 20302 | 46954 3 | 10:26.05 | 6:00.69 | 46955 | 74023 4 | 16:26.74 | 5:29.55 | 74024 | 98753 5 | 21:56.54 | 4:24.26 | 98754 | 118579 6 | 26:21.05 | 5:28.73 | 118580 | 143252 7 | 31:50.03 | 4:33.42 | 143253 | 163769 8 | 36:23.45 | 5:21.73 | 163770 | 187917
Track 1 Filename K:\EAC\01 - Headin' South.wav Pre-gap length 0:00:02.00 Peak level 98.2 % Extraction speed 4.5 X Track quality 100.0 % Test CRC 18A25937 Copy CRC 18A25937 Accurately ripped (confidence 2) [94C57E1E] (AR v2) Copy OK
Track 2 Filename K:\EAC\02 - The Song Is Ended.wav Pre-gap length 0:00:02.28 Peak level 100.0 % Extraction speed 5.3 X Track quality 100.0 % Test CRC B91107B3 Copy CRC B91107B3 Accurately ripped (confidence 2) [44F28F8C] (AR v2) Copy OK
Track 3 Filename K:\EAC\03 - Summertime.wav Pre-gap length 0:00:02.28 Peak level 100.0 % Extraction speed 5.8 X Track quality 100.0 % Test CRC 270894CF Copy CRC 270894CF Accurately ripped (confidence 2) [085C784B] (AR v2) Copy OK
Track 4 Filename K:\EAC\04 - Low Down.wav Pre-gap length 0:00:02.28 Peak level 100.0 % Extraction speed 6.3 X Track quality 100.0 % Test CRC 44DBB12D Copy CRC 44DBB12D Accurately ripped (confidence 2) [ABC81D70] (AR v2) Copy OK
Track 5 Filename K:\EAC\05 - Congalegre.wav Pre-gap length 0:00:02.28 Peak level 100.0 % Extraction speed 6.5 X Track quality 100.0 % Test CRC EDA11C2B Copy CRC EDA11C2B Accurately ripped (confidence 2) [FC0E4037] (AR v2) Copy OK
Track 6 Filename K:\EAC\06 - Prelude To A Kiss.wav Pre-gap length 0:00:02.28 Peak level 97.0 % Extraction speed 6.0 X Track quality 99.9 % Test CRC E658FD99 Copy CRC E658FD99 Accurately ripped (confidence 2) [2C2ED492] (AR v2) Copy OK
Track 7 Filename K:\EAC\07 - Jim Loves Sue.wav Pre-gap length 0:00:02.28 Peak level 100.0 % Extraction speed 6.0 X Track quality 99.9 % Test CRC BF58B221 Copy CRC BF58B221 Accurately ripped (confidence 2) [3EAAA2C3] (AR v2) Copy OK
Track 8 Filename K:\EAC\08 - My Mother's Eyes.wav Pre-gap length 0:00:02.28 Peak level 100.0 % Extraction speed 7.7 X Track quality 100.0 % Test CRC B0EADA03 Copy CRC B0EADA03 Accurately ripped (confidence 2) [5809A2F4] (AR v2) Copy OK
All tracks accurately ripped
No errors occurred
End of status report
---- CUETools DB Plugin V2.1.6
[CTDB TOCID: MzK1JUHRzo7M0YREUdUNJVqwJ9c-] found
Submit result: MzK1JUHRzo7M0YREUdUNJVqwJ9c- has been confirmed
Track | CTDB Status 1 | (1/1) Accurately ripped 2 | (1/1) Accurately ripped 3 | (1/1) Accurately ripped 4 | (1/1) Accurately ripped 5 | (1/1) Accurately ripped 6 | (1/1) Accurately ripped 7 | (1/1) Accurately ripped 8 | (1/1) Accurately ripped
==== Log checksum 70A0EF366D67AB9C951AE8158557D92D3CC9BA1B8FAF305630DD4979049A8A77 ====</pre></spoiler>
Содержание индексной карты (.CUE)
<spoiler title="Содержание индексной карты (.CUE)"><pre>REM GENRE Jazz
REM DATE 1960
REM DISCID 7109C908
REM COMMENT "ExactAudioCopy v1.3"
PERFORMER "Horace Parlan"
TITLE "Headin' South"
FILE "01 - Headin' South.wav" WAVE TRACK 01 AUDIO TITLE "Headin' South" PERFORMER "Horace Parlan" INDEX 01 00:00:00 TRACK 02 AUDIO TITLE "The Song Is Ended" PERFORMER "Horace Parlan" INDEX 00 04:28:24
FILE "02 - The Song Is Ended.wav" WAVE INDEX 01 00:00:00 TRACK 03 AUDIO TITLE "Summertime" PERFORMER "Horace Parlan" INDEX 00 05:53:00
FILE "03 - Summertime.wav" WAVE INDEX 01 00:00:00 TRACK 04 AUDIO TITLE "Low Down" PERFORMER "Horace Parlan" INDEX 00 05:58:41
FILE "04 - Low Down.wav" WAVE INDEX 01 00:00:00 TRACK 05 AUDIO TITLE "Congalegre" PERFORMER "Horace Parlan" INDEX 00 05:27:27
FILE "05 - Congalegre.wav" WAVE INDEX 01 00:00:00 TRACK 06 AUDIO TITLE "Prelude to a Kiss" PERFORMER "Horace Parlan" INDEX 00 04:21:73
FILE "06 - Prelude to a Kiss.wav" WAVE INDEX 01 00:00:00 TRACK 07 AUDIO TITLE "Jim Loves Sue" PERFORMER "Horace Parlan" INDEX 00 05:26:45
FILE "07 - Jim Loves Sue.wav" WAVE INDEX 01 00:00:00 TRACK 08 AUDIO TITLE "My Mother's Eyes" PERFORMER "Horace Parlan" INDEX 00 04:31:14
FILE "08 - My Mother's Eyes.wav" WAVE INDEX 01 00:00:00</pre></spoiler>
Лог проверки качества
<spoiler title="CUETools log"><pre>[CUETools log; Date: 05.02.2017 23:10:49; Version: 2.1.5]
[CTDB TOCID: MzK1JUHRzo7M0YREUdUNJVqwJ9c-] found.
Track | CTDB Status 1 | (2/2) Accurately ripped 2 | (2/2) Accurately ripped 3 | (2/2) Accurately ripped 4 | (2/2) Accurately ripped 5 | (2/2) Accurately ripped 6 | (2/2) Accurately ripped 7 | (2/2) Accurately ripped 8 | (2/2) Accurately ripped
[AccurateRip ID: 000d0634-0056c6e1-7109c908] found.
Track [ CRC | V2 ] Status 01 [d49bf746|94c57e1e] (0+2/2) Accurately ripped 02 [87f6d709|44f28f8c] (0+2/2) Accurately ripped 03 [5f8180bb|085c784b] (0+2/2) Accurately ripped 04 [61c87041|abc81d70] (0+2/2) Accurately ripped 05 [06efc1be|fc0e4037] (0+2/2) Accurately ripped 06 [3ea085c7|2c2ed492] (0+2/2) Accurately ripped 07 [7723c4ed|3eaaa2c3] (0+2/2) Accurately ripped 08 [856dcf43|5809a2f4] (0+2/2) Accurately ripped
Track Peak [ CRC32 ] [W/O NULL] [ LOG ] -- 100,0 [546D428C] [B0C01AE0] 01 98,2 [18A25937] [B6C8E938] CRC32 02 100,0 [B91107B3] [2762E4D2] CRC32 03 100,0 [270894CF] [11AEF9AE] CRC32 04 100,0 [44DBB12D] [DB3DCB0E] CRC32 05 100,0 [EDA11C2B] [E078C969] CRC32 06 97,0 [E658FD99] [43332841] CRC32 07 100,0 [BF58B221] [966A6FA4] CRC32 08 100,0 [B0EADA03] [B7F4BE9E] CRC32</pre></spoiler>
Приватный:
Нет (DHT включён)
Размер:
269.07 Мб (282,135,767 байт) » файлов: 16
Участники:
0 раздают, 0 качают (0 участников всего)
Внешние участники:
5 раздают, 1 качают (6 участников всего) [ Обновить ]
00:18
90
RSS
Нет комментариев. Ваш будет первым!