Поиск

1960 (1990) Max Roach Quintet - Long as You're Living {Enja CD 4074-2}

1960 (1990) Max Roach Quintet - Long as You're Living {Enja CD 4074-2}
Стили:
Страна-производитель диска (релиза):
Germany
Дата записи диска:
5 февраля 1960
Дата издания диска:
1990
Издатель (лейбл):
Номер по каталогу:
CD 4074-2
Носитель:
CD
Битрейт аудио:
lossless
Аудиокодек:
FLAC (*.flac)
Тип рипа:
tracks+.cue
Время звучания:
55:04
Наличие сканов:
  • web
Релизёр (источник):
fiks22

Состав:
  • Max Roach — drums
  • Stanley Turrentine — tenor saxophone
  • Tommy Turrentine — trumpet
  • Julian Priester — trombone
  • Bobby Boswell — bass

Recorded at Fruit Hall, Kaiserslautern on February 5, 1960.

01. Lotus Blossom (Dorham) - 7:33
02. Drum Conversation (Roach) - 6:56
03. The Villa (Dorham) - 7:39
04. Long as You're Living (Brown-Turrentine-Priester) - 10:27
05. Night in Tunisia (Gillespie-Paparelli) - 12:07
06. Prelude (Morehead) - 8:04
07. Drum Talk (Roach) - 2:18

Лог создания рипа
Exact Audio Copy V1.1 from 23. June 2015
EAC extraction logfile from 12. July 2017, 17:00
Max Roach / Long As You're Living
Used drive : hp BD CMB UJ141AF Adapter: 1 ID: 0
Read mode : Secure
Utilize accurate stream : Yes
Defeat audio cache : Yes
Make use of C2 pointers : No
Read offset correction : 103
Overread into Lead-In and Lead-Out : No
Fill up missing offset samples with silence : Yes
Delete leading and trailing silent blocks : No
Null samples used in CRC calculations : Yes
Used interface : Native Win32 interface for Win NT & 2000
Gap handling : Appended to previous track
Used output format : User Defined Encoder
Selected bitrate : 1024 kBit/s
Quality : High
Add ID3 tag : No
Command line compressor : C:\Program Files (x86)\Exact Audio Copy\Flac\flac.exe
Additional command line options : -8 -e -V -T "ARTIST=%artist%" -T "TITLE=%title%" -T "ALBUM=%albumtitle%" -T "DATE=%year%" -T "TRACKNUMBER=%tracknr%" -T "GENRE=%genre%" -T "PERFORMER=%albuminterpret%" -T "COMPOSER=%composer%" %haslyrics%--tag-from-file=LYRICS="%lyricsfile%"%haslyrics% -T "ALBUMARTIST=%albumartist%" -T "DISCNUMBER=%cdnumber%" -T "TOTALDISCS=%totalcds%" -T "TOTALTRACKS=%numtracks%" -T "COMMENT=%comment%" %source% -o %dest%
TOC of the extracted CD Track | Start | Length | Start sector | End sector --------------------------------------------------------- 1 | 0:00.33 | 7:33.35 | 33 | 34042 2 | 7:33.68 | 6:55.40 | 34043 | 65207 3 | 14:29.33 | 7:39.00 | 65208 | 99632 4 | 22:08.33 | 10:27.00 | 99633 | 146657 5 | 32:35.33 | 12:07.00 | 146658 | 201182 6 | 44:42.33 | 8:03.67 | 201183 | 237474 7 | 52:46.25 | 2:17.70 | 237475 | 247819
Track 1 Filename C:\Users\Lilith\Documents\Max Roach - Long As You're Living (1990)\01 - Lotus Blossom.wav Pre-gap length 0:00:02.44 Peak level 92.7 % Extraction speed 1.5 X Track quality 99.9 % Test CRC 3B5391B4 Copy CRC 3B5391B4 Accurately ripped (confidence 4) [8E93250A] (AR v2) Copy OK
Track 2 Filename C:\Users\Lilith\Documents\Max Roach - Long As You're Living (1990)\02 - Drum Conversation.wav Pre-gap length 0:00:27.20 Peak level 100.0 % Extraction speed 1.9 X Track quality 100.0 % Test CRC 4CE52581 Copy CRC 4CE52581 Accurately ripped (confidence 4) [A35E5845] (AR v2) Copy OK
Track 3 Filename C:\Users\Lilith\Documents\Max Roach - Long As You're Living (1990)\03 - The Villa.wav Pre-gap length 0:00:23.90 Peak level 66.9 % Extraction speed 2.2 X Track quality 100.0 % Test CRC 2E794EAC Copy CRC 2E794EAC Accurately ripped (confidence 4) [31908883] (AR v2) Copy OK
Track 4 Filename C:\Users\Lilith\Documents\Max Roach - Long As You're Living (1990)\04 - Long As You're Living.wav Pre-gap length 0:00:16.50 Peak level 95.1 % Extraction speed 2.5 X Track quality 100.0 % Test CRC F52808D9 Copy CRC F52808D9 Accurately ripped (confidence 4) [FF4FFBE6] (AR v2) Copy OK
Track 5 Filename C:\Users\Lilith\Documents\Max Roach - Long As You're Living (1990)\05 - Night In Tunisia.wav Pre-gap length 0:00:20.40 Peak level 82.2 % Extraction speed 2.8 X Track quality 100.0 % Test CRC 626346F7 Copy CRC 626346F7 Accurately ripped (confidence 4) [59F8669A] (AR v2) Copy OK
Track 6 Filename C:\Users\Lilith\Documents\Max Roach - Long As You're Living (1990)\06 - Prelude.wav Pre-gap length 0:00:20.70 Peak level 61.6 % Extraction speed 3.0 X Track quality 100.0 % Test CRC 965761CC Copy CRC 965761CC Accurately ripped (confidence 3) [AADE857C] (AR v2) Copy OK
Track 7 Filename C:\Users\Lilith\Documents\Max Roach - Long As You're Living (1990)\07 - Drum Talk.wav Pre-gap length 0:00:06.86 Peak level 100.0 % Extraction speed 2.6 X Track quality 100.0 % Test CRC 08BBA4DC Copy CRC 08BBA4DC Accurately ripped (confidence 4) [7E2281A8] (AR v2) Copy OK
All tracks accurately ripped
No errors occurred
End of status report
---- CUETools DB Plugin V2.1.6
[CTDB TOCID: i6Xh2IIbph9D3Qr4yDv1djKp3DM-] found
Submit result: i6Xh2IIbph9D3Qr4yDv1djKp3DM- has been confirmed
Track | CTDB Status 1 | (1/1) Accurately ripped 2 | (1/1) Accurately ripped 3 | (1/1) Accurately ripped 4 | (1/1) Accurately ripped 5 | (1/1) Accurately ripped 6 | (1/1) Accurately ripped 7 | (1/1) Accurately ripped
==== Log checksum 95338B29CDF60D075C53947B294E7203113AB522B0DE150B19A128E53950A388 ====
Содержание индексной карты (.CUE)
REM GENRE Jazz
REM DATE 1960
REM DISCID 630CE807
REM COMMENT "ExactAudioCopy v1.1"
PERFORMER "Max Roach"
TITLE "Long as You're Living"
FILE "01 - Lotus Blossom.wav" WAVE TRACK 01 AUDIO TITLE "Lotus Blossom" PERFORMER "Max Roach" PREGAP 00:00:33 INDEX 01 00:00:00 TRACK 02 AUDIO TITLE "Drum Conversation" PERFORMER "Max Roach" INDEX 00 07:06:20
FILE "02 - Drum Conversation.wav" WAVE INDEX 01 00:00:00 TRACK 03 AUDIO TITLE "The Villa" PERFORMER "Max Roach" INDEX 00 06:31:47
FILE "03 - The Villa.wav" WAVE INDEX 01 00:00:00 TRACK 04 AUDIO TITLE "Long as You're Living" PERFORMER "Max Roach" INDEX 00 07:22:37
FILE "04 - Long as You're Living.wav" WAVE INDEX 01 00:00:00 TRACK 05 AUDIO TITLE "Night in Tunisia" PERFORMER "Max Roach" INDEX 00 10:06:45
FILE "05 - Night in Tunisia.wav" WAVE INDEX 01 00:00:00 TRACK 06 AUDIO TITLE "Prelude" PERFORMER "Max Roach" INDEX 00 11:46:22
FILE "06 - Prelude.wav" WAVE INDEX 01 00:00:00 TRACK 07 AUDIO TITLE "Drum Talk" PERFORMER "Max Roach" INDEX 00 07:57:02
FILE "07 - Drum Talk.wav" WAVE INDEX 01 00:00:00
Лог проверки качества
[CUETools log; Date: 15.07.2017 23:16:48; Version: 2.1.5]
Pregap length 00:00:33.
[CTDB TOCID: i6Xh2IIbph9D3Qr4yDv1djKp3DM-] found.
Track | CTDB Status 1 | (2/2) Accurately ripped 2 | (2/2) Accurately ripped 3 | (2/2) Accurately ripped 4 | (2/2) Accurately ripped 5 | (2/2) Accurately ripped 6 | (2/2) Accurately ripped 7 | (2/2) Accurately ripped
[AccurateRip ID: 000fbf75-005f547c-630ce807] found.
Track [ CRC | V2 ] Status 01 [947d0051|8e93250a] (3+4/7) Accurately ripped 02 [51427b3e|a35e5845] (3+4/7) Accurately ripped 03 [a5491363|31908883] (3+4/7) Accurately ripped 04 [e6773821|ff4ffbe6] (3+4/7) Accurately ripped 05 [82701d8a|59f8669a] (3+4/7) Accurately ripped 06 [0daf08ca|aade857c] (3+3/6) Accurately ripped 07 [27460f5f|7e2281a8] (3+4/7) Accurately ripped
Offsetted by -681: 01 [0db636df] (0/7) No match (V2 was not tested) 02 [94564049] (0/7) No match (V2 was not tested) 03 [41ffbe45] (0/7) No match (V2 was not tested) 04 [453da74f] (0/7) No match (V2 was not tested) 05 [3c539447] (0/7) No match (V2 was not tested) 06 [1aba41c7] (0/6) No match (V2 was not tested) 07 [c0529b13] (0/7) No match (V2 was not tested)
Track Peak [ CRC32 ] [W/O NULL] [ LOG ] -- 100,0 [7691AED4] [4428B8E2] 01 92,7 [3B5391B4] [F4DFB18D] CRC32 02 100,0 [4CE52581] [5AE75838] CRC32 03 66,9 [2E794EAC] [8404A1F6] CRC32 04 95,1 [F52808D9] [8AEC98E7] CRC32 05 82,2 [626346F7] [BB5EE252] CRC32 06 61,6 [965761CC] [D4CDE1CA] CRC32 07 100,0 [08BBA4DC] [71BEF56B] CRC32
Скачивание доступно после регистрации!!
Приватный:
Нет (DHT включён)
Размер:
249.11 Мб (261,210,168 байт) » файлов: 18
Участники:
0 раздают, 0 качают (0 участников всего)
Внешние участники:
5 раздают, 2 качают (7 участников всего) [ Обновить ]
15:01
135
RSS
Нет комментариев. Ваш будет первым!