Поиск

1960 (1989) Art Blakey & the Jazz Messengers - Les Liaisons Dangereuses [Original Motion Picture Soundtrack]

1960 (1989) Art Blakey & the Jazz Messengers - Les Liaisons Dangereuses [Original Motion Picture Soundtrack]
Страна-производитель диска (релиза):
USA
Дата записи диска:
28, 29 июля 1959
Дата издания диска:
1960
Дата переиздания диска:
1989
Номер по каталогу:
680.203 ML
Носитель:
CD
Битрейт аудио:
lossless
Аудиокодек:
APE (*.ape)
Тип рипа:
image+.cue
Время звучания:
50:19
Наличие сканов:
  • да
Состав:
  • Art Blakey Drums
  • Sonny Cohn Trumpet
  • Duke Jordan Composer, Piano
  • Eddie Khan Bass
  • Tommy Lopez Congas
  • Aubrey Mayhew Director, Producer
  • Lee Morgan Trumpet
  • William Rodriguez Congas
  • Charlie Rouse Vocals
  • Cees Schrama Collaboration
  • Bob Simpson Engineer
  • Art Taylor Drums
  • Bobby Timmons Piano
  • Barney Wilen Sax (Soprano), Sax (Tenor)

01 | No Problem | 7:22 | 1st version
02 | No Hay Problema | 4:37 | 1st version
03 | Prelude In Blue | 6:59 | a "L'Esquinade"
04 | Valmontana | 4:47 | 1st version
05 | Miguel's Party | 4:23 |
06 | Prelude In Blue | 5:54 | chez Miguel
07 | No Problem | 6:01 | 2nd version
08 | Weehawken Mad Pad | 1:50 |
09 | Valmontana | 4:33 | 2nd version
10 | No Hay Problema | 3:53 | 2nd version

Recorded at Nola Studios in New York, July 28-29, 1959. Includes liner notes by Marcel Romano.

Лог создания рипа
Exact Audio Copy V0.99 prebeta 2 from 28. July 2007
Отчёт EAC об извлечении, выполненном 21. августа 2007, 0:03
Art Blakey's Jazz Messengers / Les Liaisons Dangereuses 1960
Дисковод: HL-DT-STDVDRAM GSA-4167B Adapter: 0 ID: 0
Режим чтения : Достоверность
Использование точного потока : Да
Отключение кэша аудио : Да
Использование указателей C2 : Нет
Коррекция смещения при чтении : 667
Способность читать области Lead-in и Lead-out : Нет
Заполнение пропущенных сэмплов тишиной : Да
Удаление блоков с тишиной в начале и конце : Нет
При вычислениях CRC использовались нулевые сэмплы : Да
Интерфейс : Установленный внешний ASPI-интерфейс
Выходной формат : Внутренние WAV-операции
Формат сэмплов : 44.100 Гц; 16 бит; стерео
TOC извлечённого CD
Трек | Старт | Длительность | Начальный сектор | Конечный сектор
---------------------------------------------------------------------
1 | 0:00.33 | 7:22.00 | 33 | 33182
2 | 7:22.33 | 4:37.00 | 33183 | 53957
3 | 11:59.33 | 6:59.00 | 53958 | 85382
4 | 18:58.33 | 4:47.00 | 85383 | 106907
5 | 23:45.33 | 4:23.00 | 106908 | 126632
6 | 28:08.33 | 5:54.00 | 126633 | 153182
7 | 34:02.33 | 6:01.00 | 153183 | 180257
8 | 40:03.33 | 1:50.00 | 180258 | 188507
9 | 41:53.33 | 4:33.00 | 188508 | 208982
10 | 46:26.33 | 3:53.12 | 208983 | 226469
Характеристики диапазона извлечения и сообщения об ошибках
Выбранный диапазон
Пиковый уровень 97.7 %
Качество диапазона 100.0 %
CRC копии 7F711193
Копирование... OK
Ошибок не произошло
Конец отчёта
Приватный:
Нет (DHT включён)
Размер:
279.02 Мб (292,578,255 байт) » файлов: 13
Участники:
6 раздают, 0 качают (6 участников всего)
Внешние участники:
5 раздают, 2 качают (7 участников всего) [ Обновить ]
02:15
98
RSS
Нет комментариев. Ваш будет первым!