Поиск

1959 (1999) Miles Davis - Kind Of Blue {Columbia/Legacy CK 64935}

1959 (1999) Miles Davis - Kind Of Blue {Columbia/Legacy CK 64935}
Страна-производитель диска (релиза):
USA
Дата записи диска:
2 марта - 22 апреля 1959
Дата издания диска:
17 августа 1959
Дата переиздания диска:
18 октября 1999
Издатель (лейбл):
Номер по каталогу:
CK 64935
Носитель:
CD
Битрейт аудио:
lossless
Аудиокодек:
FLAC (*.flac)
Тип рипа:
tracks+.cue
Время звучания:
55:16
Наличие сканов:
  • да
Релизёр (источник):
xramirez
Треклист:

01. So What
02. Freddie Freeloader
03. Blue in Green
04. All Blues
05. Flamenco Sketches
06. Flamenco Sketches [alternate take]

Состав:
  • Cannonball Adderley Sax (Alto)
  • Rene Arsenault Assistant Producer, Production Assistant
  • Paul Chambers Bass, Double Bass
  • Jimmy Cobb Drums
  • John Coltrane Sax (Tenor)
  • Miles Davis Composer, Trumpet
  • Bill Evans Composer, Liner Notes, Original Liner Notes, Piano
  • Nat Hentoff Liner Notes
  • Wynton Kelly Piano
  • Larry Keyes Producer
  • Teo Macero Producer
  • Robert Palmer Liner Notes
  • Robert Palmer Liner Notes
  • Fred Plaut Audio Engineer, Engineer
  • Irving Townsend Audio Production, Original Recording Producer
  • Robert Waller Audio Engineer
Об альбоме (сборнике):
Kind of Blue не просто яркое свидетельство таланта Майлза Дэвиса — это альбом, который возвышается над его остальными, альбом который считается определяющим для джаза, ни что иное как общепризнанный стандарт совершенства. В чем же причина мистерии Kind of Blue? Возможно в том, что гений его создателя не выставляется здесь напоказ. Его музыка влечет слушателя медленными, роскошными басовыми партиями и нежными аккордами фортепьяно в «So What». С этого момента темп всей записи практически не меняется — в каждой мелодии сквозит чувство расслабленности, музыка течет легко. Однако Kind of Blue нечто больше чем приятная и легкая музыка. Это кульминация модального джаза — тональности и соло строятся в общем ключе, без изменений аккордов, придавая музыке едва уловимое новое качество. Но все же это не объясняет того, почему даже записные поклонники джаза, зная каждый его нюанс, возвращаются к этому альбому снова и снова. Альбом манит к себе во многом благодаря невероятному составу музыкантов — Майлз, Колтрейн, Билл Эванс, Кэннобол Оддерли, Пол Чамберс, Джимми Кобб — все это один из величайших коллективов в истории, играющий на пике своего мастерства. По признанию Била Эванса все композиции были записаны с чистого листа без предварительного проигрывания. Дэвис обозначил темы перед тем как включить запись и все что было дальше — это чистейшая импровизация. Результаты были поразительными, они и до сей поры не потеряли своей актуальности. Kind of Blue произведение многогранное — его можно использовать как музыкальный фон, а можно насладиться его вдумчивым прослушиванием. Это очень продвинутая музыка, которая к тому же и необыкновенно приятная. Возможно утверждение, что если вам не нравится Kind of Blue, то вам не нравится и весь джаз в целом, несколько спорное, но практически невозможно представить что-либо кроме этого альбома, что можно было бы назвать краеугольным камнем любой джазовой коллекции.

© Stephen Thomas Erlewine<
Лог создания рипа
EAC extraction logfile from 12. December 2006, 8:28 for CD
Miles Davis / Kind Of Blue

Used drive  : ASUS    DRW-0804P   Adapter: 1  ID: 0
Read mode   : Secure with NO C2, accurate stream, disable cache
Read offset correction : 48
Overread into Lead-In and Lead-Out : No

Used output format : C:\Programmi\FLAC\flac.exe   (User Defined Encoder)
                     320 kBit/s
                     Additional command line options : -8 -V -T "artist=%a" -T "title=%t" -T "album=%g" -T "date=%y" -T "tracknumber=%n" -T "genre=%m" -T "comment=Exact Audio Copy 0.95 b5 Secure Mode / FLAC q8 v. 1.1.2" %s

Other options      :
    Fill up missing offset samples with silence : Yes
    Delete leading and trailing silent blocks : No
    Native Win32 interface for Win NT & 2000

Track  1
     Filename M:\Miles Davis - Kind Of Blue\01 - So What.wav

     Pre-gap length  0:00:02.00

     Peak level 94.4 %
     Track quality 100.0 %
     Test CRC 33D07D6F
     Copy CRC 33D07D6F
     Copy OK

Track  2
     Filename M:\Miles Davis - Kind Of Blue\02 - Freddie Freeloader.wav

     Pre-gap length  0:00:02.60

     Peak level 94.4 %
     Track quality 100.0 %
     Test CRC 75392A2B
     Copy CRC 75392A2B
     Copy OK

Track  3
     Filename M:\Miles Davis - Kind Of Blue\03 - Blue In Green.wav

     Pre-gap length  0:00:02.57

     Peak level 89.8 %
     Track quality 100.0 %
     Test CRC E1F23CF0
     Copy CRC E1F23CF0
     Copy OK

Track  4
     Filename M:\Miles Davis - Kind Of Blue\04 - All Blues.wav

     Pre-gap length  0:00:00.40

     Peak level 94.4 %
     Track quality 100.0 %
     Test CRC ED3A457F
     Copy CRC ED3A457F
     Copy OK

Track  5
     Filename M:\Miles Davis - Kind Of Blue\05 - Flamenco Sketches.wav

     Pre-gap length  0:00:02.80

     Peak level 94.4 %
     Track quality 100.0 %
     Test CRC 1AF426CC
     Copy CRC 1AF426CC
     Copy OK

Track  6
     Filename M:\Miles Davis - Kind Of Blue\06 - Flamenco Sketches (Alternate Take).wav

     Pre-gap length  0:00:00.06

     Peak level 94.4 %
     Track quality 100.0 %
     Test CRC BECFF81F
     Copy CRC BECFF81F
     Copy OK

No errors occured

End of status report
Содержание индексной карты (.CUE)
PERFORMER "Miles Davis"
TITLE "Kind Of Blue"
FILE "01 - So What.wav" WAVE
  TRACK 01 AUDIO
    TITLE "So What"
    PERFORMER "Miles Davis"
    INDEX 01 00:00:00
  TRACK 02 AUDIO
    TITLE "Freddie Freeloader"
    PERFORMER "Miles Davis"
    INDEX 00 09:22:30
FILE "02 - Freddie Freeloader.wav" WAVE
    INDEX 01 00:00:00
  TRACK 03 AUDIO
    TITLE "Blue In Green"
    PERFORMER "Miles Davis"
    INDEX 00 09:46:37
FILE "03 - Blue In Green.wav" WAVE
    INDEX 01 00:00:00
  TRACK 04 AUDIO
    TITLE "All Blues"
    PERFORMER "Miles Davis"
    INDEX 00 05:37:12
FILE "04 - All Blues.wav" WAVE
    INDEX 01 00:00:00
  TRACK 05 AUDIO
    TITLE "Flamenco Sketches"
    PERFORMER "Miles Davis"
    INDEX 00 11:32:73
FILE "05 - Flamenco Sketches.wav" WAVE
    INDEX 01 00:00:00
  TRACK 06 AUDIO
    TITLE "Flamenco Sketches (Alternate Take)"
    PERFORMER "Miles Davis"
    INDEX 00 09:26:05
FILE "06 - Flamenco Sketches (Alternate Take).wav" WAVE
    INDEX 01 00:00:00
Лог проверки качества
[CUETools log; Date: 01.12.2015 23:17:49; Version: 2.1.4]
[CTDB TOCID: OItvlK6mjU7MjueXzSzNRCKoZlE-] found.
Track | CTDB Status
  1   | (2627/2641) Accurately ripped
  2   | (2628/2641) Accurately ripped
  3   | (2630/2641) Accurately ripped
  4   | (2625/2641) Accurately ripped
  5   | (2624/2641) Accurately ripped, or (2/2641) differs in 2410 samples @09:25:69-09:26:04
  6   | (2623/2641) Accurately ripped
[AccurateRip ID: 000d2269-00462570-590cfd06] found.
Track   [  CRC   |   V2   ] Status
 01     [bf9e60b7|6161707c] (200+200/1674) Accurately ripped
 02     [002094c4|7d0a3e6c] (200+200/1671) Accurately ripped
 03     [93b6b811|4cbe5b6c] (200+200/1672) Accurately ripped
 04     [a7f414e2|fb42fde3] (200+200/1669) Accurately ripped
 05     [43d67a72|a19b264e] (200+200/1659) Accurately ripped
 06     [27325b41|60402d5e] (200+200/1658) Accurately ripped
Offsetted by -1310:
 01     [e8f8f4c3] (016/1674) Accurately ripped
 02     [47959c9e] (015/1671) Accurately ripped
 03     [6425b745] (014/1672) Accurately ripped
 04     [d34648be] (014/1669) Accurately ripped
 05     [1d80f4aa] (014/1659) Accurately ripped
 06     [11c8c25d] (014/1658) Accurately ripped
Offsetted by -757:
 01     [fe356819] (003/1674) Accurately ripped
 02     [92c04063] (003/1671) Accurately ripped
 03     [b532a88f] (003/1672) Accurately ripped
 04     [4b5826bc] (003/1669) Accurately ripped
 05     [523abfe6] (003/1659) Accurately ripped
 06     [e28ad4fb] (003/1658) Accurately ripped
Offsetted by -725:
 01     [0f2d54d9] (002/1674) Accurately ripped
 02     [de644803] (002/1671) Accurately ripped
 03     [851d2fcf] (002/1672) Accurately ripped
 04     [3cff607c] (002/1669) Accurately ripped
 05     [9d08db66] (002/1659) Accurately ripped
 06     [9a5e82bb] (002/1658) Accurately ripped
Offsetted by -676:
 01     [9928f75f] (027/1674) Accurately ripped
 02     [023773b0] (027/1671) Accurately ripped
 03     [4b7c4ee9] (027/1672) Accurately ripped
 04     [170770ea] (027/1669) Accurately ripped
 05     [77947582] (027/1659) Accurately ripped
 06     [5bdaa4c9] (027/1658) Accurately ripped
Offsetted by -665:
 01     [6efe30c1] (002/1674) Accurately ripped
 02     [ac37d64f] (002/1671) Accurately ripped
 03     [eaf4ed67] (002/1672) Accurately ripped
 04     [6218ecc4] (002/1669) Accurately ripped
 05     [894b4ef6] (002/1659) Accurately ripped
 06     [530b6883] (002/1658) Accurately ripped
Offsetted by -664:
 01     [df85f027] (064/1674) Accurately ripped
 02     [5e94f68c] (063/1671) Accurately ripped
 03     [f97441a1] (063/1672) Accurately ripped
 04     [51a62692] (064/1669) Accurately ripped
 05     [73a1bfd2] (064/1659) Accurately ripped
 06     [80ca05f1] (060/1658) Accurately ripped
Offsetted by -659:
 01     [122cad25] (200/1674) Accurately ripped
 02     [da6697bd] (200/1671) Accurately ripped
 03     [41f0e6c3] (200/1672) Accurately ripped
 04     [ff684798] (200/1669) Accurately ripped
 05     [0751f41e] (200/1659) Accurately ripped
 06     [65831917] (200/1658) Accurately ripped
Offsetted by -628:
 01     [b29cda7f] (079/1674) Accurately ripped
 02     [73ad7f20] (080/1671) Accurately ripped
 03     [035c19c9] (080/1672) Accurately ripped
 04     [0182478a] (080/1669) Accurately ripped
 05     [67c99ec2] (080/1659) Accurately ripped
 06     [ef982969] (078/1658) Accurately ripped
Offsetted by -29:
 01     [003db229] (189/1674) Accurately ripped
 02     [cb93eddb] (189/1671) Accurately ripped
 03     [ef4a2d7f] (192/1672) Accurately ripped
 04     [84f4888c] (188/1669) Accurately ripped
 05     [b80bb186] (185/1659) Accurately ripped
 06     [f89a85cb] (184/1658) Accurately ripped
Offsetted by -1323:
 01     [32143c95] (000/1674) No match (V2 was not tested)
 02     [38daf985] (000/1671) No match (V2 was not tested)
 03     [a7ae7053] (000/1672) No match (V2 was not tested)
 04     [a91a5948] (000/1669) No match (V2 was not tested)
 05     [371d397e] (000/1659) No match (V2 was not tested)
 06     [bf1ac3c7] (000/1658) No match (V2 was not tested)
Offsetted by -779:
 01     [528af555] (000/1674) No match (V2 was not tested)
 02     [3ebf7b25] (000/1671) No match (V2 was not tested)
 03     [76416b93] (000/1672) No match (V2 was not tested)
 04     [b5352f08] (000/1669) No match (V2 was not tested)
 05     [2ecd0cfe] (000/1659) No match (V2 was not tested)
 06     [f4294d87] (000/1658) No match (V2 was not tested)
Offsetted by -693:
 01     [20254199] (000/1674) No match (V2 was not tested)
 02     [2a084fa3] (000/1671) No match (V2 was not tested)
 03     [5507b70f] (000/1672) No match (V2 was not tested)
 04     [2ea69a3c] (000/1669) No match (V2 was not tested)
 05     [e7d6f6e6] (000/1659) No match (V2 was not tested)
 06     [5232307b] (000/1658) No match (V2 was not tested)
Offsetted by -689:
 01     [e2443f31] (002/1674) Accurately ripped
 02     [f37cd097] (002/1671) Accurately ripped
 03     [8f0507f7] (002/1672) Accurately ripped
 04     [ecdb8174] (000/1669) No match (V2 was not tested)
 05     [9130ba56] (002/1659) Accurately ripped
 06     [092ca633] (002/1658) Accurately ripped
Offsetted by -653:
 01     [b55b2989] (000/1674) No match
 02     [0895592b] (000/1671) No match
 03     [98ece01f] (000/1672) No match
 04     [9cb7a26c] (000/1669) No match
 05     [85589946] (000/1659) No match (V2 was not tested)
 06     [77fac9ab] (000/1658) No match (V2 was not tested)
Offsetted by -95:
 01     [fd3e59dd] (000/1674) No match (V2 was not tested)
 02     [cf919e21] (002/1671) Accurately ripped
 03     [3276768b] (000/1672) No match
 04     [c28ba170] (000/1669) No match
 05     [4dc298ce] (000/1659) No match
 06     [2d75ef6f] (000/1658) No match
Offsetted by -35:
 01     [5d0f35c5] (002/1674) Accurately ripped
 02     [9d652c6d] (002/1671) Accurately ripped
 03     [984e3423] (000/1672) No match (V2 was not tested)
 04     [e7a52db8] (002/1669) Accurately ripped
 05     [3a050c5e] (000/1659) No match (V2 was not tested)
 06     [e622d537] (002/1658) Accurately ripped
Offsetted by -30:
 01     [8fb5f2c3] (002/1674) Accurately ripped
 02     [1936cd9e] (002/1671) Accurately ripped
 03     [e0cad945] (002/1672) Accurately ripped
 04     [95674ebe] (002/1669) Accurately ripped
 05     [cdb540aa] (002/1659) Accurately ripped
 06     [cadbe85d] (000/1658) No match (V2 was not tested)
Offsetted by -18:
 01     [d612eb8b] (000/1674) No match (V2 was not tested)
 02     [7594507a] (000/1671) No match (V2 was not tested)
 03     [8ec2cbfd] (000/1672) No match (V2 was not tested)
 04     [d0060466] (000/1669) No match (V2 was not tested)
 05     [c9c28afa] (000/1659) No match (V2 was not tested)
 06     [efcb4985] (000/1658) No match (V2 was not tested)
Offsetted by 6:
 01     [62ccdd1b] (000/1674) No match
 02     [2e4f5632] (000/1671) No match (V2 was not tested)
 03     [eab2b16d] (000/1672) No match (V2 was not tested)
 04     [45436fb6] (000/1669) No match (V2 was not tested)
 05     [c1dd1f9a] (000/1659) No match (V2 was not tested)
 06     [39aa0bd5] (000/1658) No match (V2 was not tested)
Offsetted by 30:
 01     [ef86ceab] (000/1674) No match (V2 was not tested)
 02     [e70a5bea] (000/1671) No match (V2 was not tested)
 03     [46a296dd] (000/16
Приватный:
Нет (DHT включён)
Размер:
380.45 Мб (398,932,516 байт) » файлов: 23
Участники:
0 раздают, 0 качают (0 участников всего)
Внешние участники:
16 раздают, 5 качают (21 участников всего) [ Обновить ]
16:27
98
RSS
Нет комментариев. Ваш будет первым!