Поиск

1959 (1999) Art Blakey & Jazz Messengers - Drums Around The Corner

1959 (1999) Art Blakey & Jazz Messengers - Drums Around The Corner
Стили:
Дата записи диска:
2 ноября 1958 и 29 марта 1959
Дата издания диска:
2 ноября 1959
Дата переиздания диска:
10 октября 1999
Издатель (лейбл):
Номер по каталогу:
7243 5 21455 2 2
Носитель:
CD
Битрейт аудио:
lossless
Аудиокодек:
FLAC (*.flac)
Тип рипа:
tracks
Время звучания:
01:12:37
Наличие сканов:
  • да
Релизёр (источник):
J23enya
Треклист:

01. Moose the Mooche 15:16
02. Blakey's Blues 11:04
03. Lee's Tune 8:22
04. Let's Take 16 Bars 6:09
05. Drums in the Rain 11:09
06. Lover 7:19
07. I've Got My Love to Keep Me Warm 7:07
08. What Is This Thing Called Love 5:42

Состав:


Recorded at Manhattan Towers, New York, New York on November 2, 1958 and the Van Gelder Studio, Hackensack, New Jersey on March 29, 1959.
Лог создания рипа
EAC extraction logfile from 5. February 2006, 20:19 for CD
Art Blakey / Drums Around The Corner
Used drive : PLEXTOR DVDR PX-712A Adapter: 1 ID: 0
Read mode : Secure with NO C2, accurate stream, disable cache
Read offset correction : 30
Overread into Lead-In and Lead-Out : No
Used output format : C:\Program\FLAC\flac.exe (User Defined Encoder)
320 kBit/s
Additional command line options : -5 -V -T "ARTIST=%a" -T "TITLE=%t" -T "ALBUM=%g" -T "DATE=%y" -T "TRACKNUMBER=%n" -T "GENRE=%m" -T "COMMENT=EAC Flac 1.1.2 -5" %s
Other options :
Fill up missing offset samples with silence : Yes
Delete leading and trailing silent blocks : No
Native Win32 interface for Win NT & 2000
Track 1
Filename G:\FLAC\01 - Moose The Mooche.wav
Pre-gap length 0:00:02.00
Peak level 98.8 %
Track quality 100.0 %
Test CRC CDB13661
Copy CRC CDB13661
Copy OK
Track 2
Filename G:\FLAC\02 - Blakey's Blues.wav
Peak level 98.8 %
Track quality 100.0 %
Test CRC 711C5406
Copy CRC 711C5406
Copy OK
Track 3
Filename G:\FLAC\03 - Lee's Tune.wav
Pre-gap length 0:00:01.13
Peak level 97.1 %
Track quality 100.0 %
Test CRC 3E447415
Copy CRC 3E447415
Copy OK
Track 4
Filename G:\FLAC\04 - Let's Take 16 Bars.wav
Peak level 98.8 %
Track quality 100.0 %
Test CRC B99DCAFC
Copy CRC B99DCAFC
Copy OK
Track 5
Filename G:\FLAC\05 - Drums in the Rain.wav
Pre-gap length 0:00:01.66
Peak level 98.8 %
Track quality 99.9 %
Test CRC 2FC24241
Copy CRC 2FC24241
Copy OK
Track 6
Filename G:\FLAC\06 - Lover.wav
Pre-gap length 0:00:01.49
Peak level 98.8 %
Track quality 100.0 %
Test CRC C80E224B
Copy CRC C80E224B
Copy OK
Track 7
Filename G:\FLAC\07 - I've Got My Love To Keep Me Warm.wav
Pre-gap length 0:00:01.84
Peak level 98.8 %
Track quality 100.0 %
Test CRC F4B6EC9F
Copy CRC F4B6EC9F
Copy OK
Track 8
Filename G:\FLAC\08 - What is this thing called Love.wav
Pre-gap length 0:00:01.09
Peak level 98.8 %
Track quality 100.0 %
Test CRC A14F91BB
Copy CRC A14F91BB
Copy OK
No errors occured
End of status report
Приватный:
Нет (DHT включён)
Размер:
474.73 Мб (497,793,529 байт) » файлов: 23
Участники:
0 раздают, 0 качают (0 участников всего)
Внешние участники:
2 раздают, 1 качают (3 участников всего) [ Обновить ]
21:22
114
RSS
Нет комментариев. Ваш будет первым!