Вы используете незарегистрированную версию компонента "Вкладки"!

Поиск

1959-1961 Tommy Flanagan - Someday Soon (2019) {Nagel Heyer} [24-44,1]

1959-1961 Tommy Flanagan - Someday Soon (2019) {Nagel Heyer} [24-44,1]
Издатель (лейбл):
Битрейт аудио:
lossless
Доп. инфо:

Формат записи/Источник записи: [TR24][OF]
Издание: Remastered
Год издания/переиздания диска: 1959-1961/2019
Издатель (лейбл): nagel heyer records
Продолжительность: 01:49:15
Наличие сканов в содержимом раздачи: Нет

Контейнер: FLAC (*.flac)
Тип рипа: tracks
Разрядность: 24/44,1
Количество каналов: 2.0

Источник (релизер): Qobuz

Лог проверки качества
foobar2000 1.4.3 / Dynamic Range Meter 1.1.1
log date: 2020-05-31 18:31:45

--------------------------------------------------------------------------------
Analyzed: Tommy Flanagan / Someday Soon
--------------------------------------------------------------------------------

DR         Peak         RMS     Duration Track
--------------------------------------------------------------------------------
DR13      -1.83 dB   -17.04 dB     10:17 01-Stardust
DR10      -1.83 dB   -13.67 dB      8:10 02-Let's Play One
DR11      -1.83 dB   -15.74 dB      8:40 03-Libeccio
DR11      -1.83 dB   -15.64 dB      8:40 04-Don't Take Your Love from Me
DR11      -1.83 dB   -15.40 dB      5:16 05-Bitty Ditty
DR12      -1.83 dB   -17.02 dB     10:46 06-Philson
DR9       -1.83 dB   -13.27 dB      5:44 07-No Refill
DR10      -1.83 dB   -14.67 dB      6:38 08-Pedalin'
DR10      -1.83 dB   -13.18 dB      8:45 09-Minor on Top
DR12      -1.83 dB   -17.19 dB     10:32 10-Night Hawk
DR11      -1.83 dB   -15.38 dB      8:06 11-Trio
DR10      -1.83 dB   -15.57 dB      8:18 12-There Is No Greater Love
DR10      -1.83 dB   -13.43 dB      9:30 13-Like Old Times
--------------------------------------------------------------------------------

Number of tracks:  13
Official DR value: DR11

Samplerate:        44100 Hz
Channels:          2
Bits per sample:   24
Bitrate:           1543 kbps
Codec:             FLAC
================================================================================
Any questions - support@pro-jazz.com. Есть вопросы - support@pro-jazz.com
11:13
413
Нет комментариев. Ваш будет первым!