Поиск

1958 (2006) Art Blakey & The Jazz Messengers - Complete Concert At Club Saint Germain (2CD)

1958 (2006) Art Blakey & The Jazz Messengers - Complete Concert At Club Saint Germain (2CD)
Стили:
Страна-производитель диска (релиза):
Spain
Дата записи диска:
21 декабря 1958
Дата издания диска:
13 марта 2006
Номер по каталогу:
69237
Носитель:
CD
Битрейт аудио:
lossless
Аудиокодек:
FLAC (*.flac)
Тип рипа:
image+.cue
Время звучания:
01:05:42
Наличие сканов:
  • да
Релизёр (источник):
J23enya
Треклист:

Disc 01:
1.1 Politely 15:43
1.2 Whisper Not 7:16
1.3 Now's the Time 13:37
1.4 The First Theme 8:30
1.5 Moanin' With Hazel 13:57
1.6 We Named It Justice (Evidence) 6:37
Disc 02:
2.1 Blues March for Europe - Number One 11:19
2.2 Like Someone in Love 10:52
2.3 Along Came Manon 10:07
2.4 Out of the Past 11:02
2.5 A Night in Tunisia 17:35
2.6 Ending with the Theme 0:30

Состав:
  • Art Blakey (drums);
  • Lee Morgan (trumpet);
  • Benny Golson (tenor saxophone);
  • Bobby Timmons (piano);
  • Jymie Merritt (bass);
  • Kenny Clark (drums, on tracks 5 & 6 of Disc 2)
  • Gana M'Bow (conga on tracks 4-6 of Disc 2)

Recorded live on December 21, 1958 at the Club Saint Germain in Paris/France
<spoiler title="Логи создания рипа"><pre>EAC extraction logfile from 10. February 2007, 18:23 for CD
Art Blakey & The Jazz-Messengers / Complete Concert At Club Saint Germain
Used drive : HL-DT-STDVDRAM GSA-4120B Adapter: 1 ID: 0
Read mode : Secure with NO C2, accurate stream, disable cache
Read offset correction : 667
Overread into Lead-In and Lead-Out : No
Used output format : C:\Programme\FLAC\flac.exe (User Defined Encoder)
128 kBit/s
Additional command line options : -8 -V -T "artist=%a" -T "title=%t" -T "album=%g" -T "date=%y" -T "tracknumber=%n" -T "genre=%m" -T "comment=Exact Audio Copy 0.95b4, Flac 1.1.3. -8" %s
Other options :
Fill up missing offset samples with silence : Yes
Delete leading and trailing silent blocks : No
Installed external ASPI interface
Track 1
Filename C:\Art Blakey & the Jazz Messengers - Complete Concert at Club Saint Germain (1958) [FLAC] {2006 Reissue}\Disc 1 of 2\01 - Politely.wav
Pre-gap length 0:00:02.01
Peak level 98.0 %
Track quality 100.0 %
Test CRC EDD7F6BA
Copy CRC EDD7F6BA
Copy OK
Track 2
Filename C:\Art Blakey & the Jazz Messengers - Complete Concert at Club Saint Germain (1958) [FLAC] {2006 Reissue}\Disc 1 of 2\02 - Whisper Not.wav
Peak level 98.0 %
Track quality 100.0 %
Test CRC 62D3CB02
Copy CRC 62D3CB02
Copy OK
Track 3
Filename C:\Art Blakey & the Jazz Messengers - Complete Concert at Club Saint Germain (1958) [FLAC] {2006 Reissue}\Disc 1 of 2\03 - Now's The Time.wav
Peak level 98.0 %
Track quality 100.0 %
Test CRC 71D1ACA1
Copy CRC 71D1ACA1
Copy OK
Track 4
Filename C:\Art Blakey & the Jazz Messengers - Complete Concert at Club Saint Germain (1958) [FLAC] {2006 Reissue}\Disc 1 of 2\04 - The First Theme.wav
Peak level 98.0 %
Track quality 100.0 %
Test CRC 650B7B35
Copy CRC 650B7B35
Copy OK
Track 5
Filename C:\Art Blakey & the Jazz Messengers - Complete Concert at Club Saint Germain (1958) [FLAC] {2006 Reissue}\Disc 1 of 2\05 - Moanin' With Hazel.wav
Peak level 98.1 %
Track quality 100.0 %
Test CRC 3421EA1E
Copy CRC 3421EA1E
Copy OK
Track 6
Filename C:\Art Blakey & the Jazz Messengers - Complete Concert at Club Saint Germain (1958) [FLAC] {2006 Reissue}\Disc 1 of 2\06 - We Named It Justice (Evidence).wav
Peak level 98.1 %
Track quality 100.0 %
Test CRC F36DA4EF
Copy CRC F36DA4EF
Copy OK
No errors occured
End of status report
--------------------------
EAC extraction logfile from 10. February 2007, 17:16 for CD
Art Blakey & The Jazz Messengers / Complete Concert At Club Saint Germain
Used drive : HL-DT-STDVDRAM GSA-4120B Adapter: 1 ID: 0
Read mode : Secure with NO C2, accurate stream, disable cache
Read offset correction : 667
Overread into Lead-In and Lead-Out : No
Used output format : C:\Programme\FLAC\flac.exe (User Defined Encoder)
128 kBit/s
Additional command line options : -8 -V -T "artist=%a" -T "title=%t" -T "album=%g" -T "date=%y" -T "tracknumber=%n" -T "genre=%m" -T "comment=Exact Audio Copy 0.95b4, Flac 1.1.3. -8" %s
Other options :
Fill up missing offset samples with silence : Yes
Delete leading and trailing silent blocks : No
Installed external ASPI interface
Track 1
Filename C:\Art Blakey & the Jazz Messengers - Complete Concert at Club Saint Germain (1958) [FLAC] {2006 Reissue}\Disc 2 of 2\01 - Blues March For Europe - Number One.wav
Pre-gap length 0:00:02.01
Peak level 98.0 %
Track quality 100.0 %
Test CRC 9EBFDB89
Copy CRC 9EBFDB89
Copy OK
Track 2
Filename C:\Art Blakey & the Jazz Messengers - Complete Concert at Club Saint Germain (1958) [FLAC] {2006 Reissue}\Disc 2 of 2\02 - Like Someone In Love.wav
Peak level 98.0 %
Track quality 100.0 %
Test CRC 7A4FF930
Copy CRC 7A4FF930
Copy OK
Track 3
Filename C:\Art Blakey & the Jazz Messengers - Complete Concert at Club Saint Germain (1958) [FLAC] {2006 Reissue}\Disc 2 of 2\03 - Along Came Manon.wav
Peak level 98.0 %
Track quality 99.9 %
Test CRC B80A15EB
Copy CRC B80A15EB
Copy OK
Track 4
Filename C:\Art Blakey & the Jazz Messengers - Complete Concert at Club Saint Germain (1958) [FLAC] {2006 Reissue}\Disc 2 of 2\04 - Out Of The Past.wav
Peak level 98.0 %
Track quality 100.0 %
Test CRC 776E4471
Copy CRC 776E4471
Copy OK
Track 5
Filename C:\Art Blakey & the Jazz Messengers - Complete Concert at Club Saint Germain (1958) [FLAC] {2006 Reissue}\Disc 2 of 2\05 - A Night In Tunisia.wav
Peak level 98.0 %
Track quality 100.0 %
Test CRC DC4268DE
Copy CRC DC4268DE
Copy OK
Track 6
Filename C:\Art Blakey & the Jazz Messengers - Complete Concert at Club Saint Germain (1958) [FLAC] {2006 Reissue}\Disc 2 of 2\06 - Ending With The Theme.wav
Peak level 98.0 %
Track quality 100.0 %
Test CRC 8DFF81CF
Copy CRC 8DFF81CF
Copy OK
No errors occured
End of status report</pre></spoiler>
Приватный:
Нет (DHT включён)
Размер:
792.48 Мб (830,973,799 байт) » файлов: 55
Участники:
0 раздают, 0 качают (0 участников всего)
Внешние участники:
2 раздают, 1 качают (3 участников всего) [ Обновить ]
Скорость:
Торрент не зарегистрирован на трекере
13:19
108
RSS
Нет комментариев. Ваш будет первым!