Поиск

1958 (2001) Miles Davis - Milestones {Columbia / Legacy CK 85203}

1958 (2001) Miles Davis - Milestones {Columbia / Legacy CK 85203}
Страна-производитель диска (релиза):
USA
Дата записи диска:
4 февраля - 4 марта 1958
Дата издания диска:
2 сентября 1958
Дата переиздания диска:
9 апреля 2001
Издатель (лейбл):
Номер по каталогу:
CK 85203
Носитель:
CD
Битрейт аудио:
lossless
Аудиокодек:
FLAC (*.flac)
Тип рипа:
tracks
Время звучания:
01:08:47
Наличие сканов:
  • да
Релизёр (источник):
xramirez

Состав:

01. Dr. Jackle 5:46
02. Sid's Ahead 12:59
03. Two Bass Hit 5:11
04. Milestones 5:42
05. Billy Boy 7:10
06. Straight, No Chaser 10:35
07. Two Bass Hit (Alternate Take) [bonus track] 4:30
08. Milestones (Alternate Take) [bonus track] 5:59
09. Straight, No Chaser (Alternate Take) [bonus track] 10:29

Лог создания рипа
EAC extraction logfile from 3. November 2006, 17:23 for CD
Miles Davis / Milestones
Used drive : PLEXTOR DVDR PX-716A Adapter: 4 ID: 0
Read mode : Secure with NO C2, accurate stream, disable cache
Read offset correction : 30
Overread into Lead-In and Lead-Out : No
Used output format : E:\Program Files\FLAC\flac.exe (User Defined Encoder) 320 kBit/s Additional command line options : -6 -V -T "ARTIST=%a" -T "TITLE=%t" -T "ALBUM=%g" -T "DATE=%y" -T "TRACKNUMBER=%n" -T "GENRE=%m" -T "COMMENT=EAC 0.95 beta 4, FLAC 1.1.2 -6" %s
Other options : Fill up missing offset samples with silence : Yes Delete leading and trailing silent blocks : No Installed external ASPI interface
Track 1 Filename X:\My FLAC\Miles Davis - Milestones (1958) [FLAC] {2001 Release}\01. Dr. Jackle.wav Pre-gap length 0:00:02.00 Peak level 100.0 % Track quality 100.0 % Test CRC B87C3A41 Copy CRC B87C3A41 Copy OK
Track 2 Filename X:\My FLAC\Miles Davis - Milestones (1958) [FLAC] {2001 Release}\02. Sid's Ahead.wav Pre-gap length 0:00:03.57 Peak level 100.0 % Track quality 100.0 % Test CRC 8AF17EE5 Copy CRC 8AF17EE5 Copy OK
Track 3 Filename X:\My FLAC\Miles Davis - Milestones (1958) [FLAC] {2001 Release}\03. Two Bass Hit.wav Pre-gap length 0:00:02.58 Peak level 95.5 % Track quality 100.0 % Test CRC 7297268B Copy CRC 7297268B Copy OK
Track 4 Filename X:\My FLAC\Miles Davis - Milestones (1958) [FLAC] {2001 Release}\04. Milestones.wav Pre-gap length 0:00:03.55 Peak level 100.0 % Track quality 100.0 % Test CRC FDDA1857 Copy CRC FDDA1857 Copy OK
Track 5 Filename X:\My FLAC\Miles Davis - Milestones (1958) [FLAC] {2001 Release}\05. Billy Boy.wav Pre-gap length 0:00:03.57 Peak level 100.0 % Track quality 100.0 % Test CRC B7A287B4 Copy CRC B7A287B4 Copy OK
Track 6 Filename X:\My FLAC\Miles Davis - Milestones (1958) [FLAC] {2001 Release}\06. Straight, No Chaser.wav Pre-gap length 0:00:03.57 Peak level 100.0 % Track quality 100.0 % Test CRC 4668A68E Copy CRC 4668A68E Copy OK
Track 7 Filename X:\My FLAC\Miles Davis - Milestones (1958) [FLAC] {2001 Release}\07. Two Bass Hit (Alternate Take).wav Pre-gap length 0:00:04.52 Peak level 95.5 % Track quality 99.9 % Test CRC 00DF56AF Copy CRC 00DF56AF Copy OK
Track 8 Filename X:\My FLAC\Miles Davis - Milestones (1958) [FLAC] {2001 Release}\08. Milestones (Alternate Take).wav Pre-gap length 0:00:02.58 Peak level 100.0 % Track quality 100.0 % Test CRC 29A63163 Copy CRC 29A63163 Copy OK
Track 9 Filename X:\My FLAC\Miles Davis - Milestones (1958) [FLAC] {2001 Release}\09. Straight, No Chaser (Alternate Take).wav Pre-gap length 0:00:02.55 Peak level 100.0 % Track quality 100.0 % Test CRC 124FB1DE Copy CRC 124FB1DE Copy OK
No errors occured
End of status report
============================================================ AccurateRip Results
============================================================
Track	Ripping Status	[Disc ID: 001790a3-7a102309] 1	Track not present in database. [9629a81e] 2	Track not present in database. [c974c2d7] 3	Track not present in database. [6a71ef94] 4	Track not present in database. [a535ea05] 5	Track not present in database. [9c1d9151] 6	Track not present in database. [e64460be] 7	Track not present in database. [1a363812] 8	Track not present in database. [10f75c14] 9	Track not present in database. [5b97bdf0]
_______________________
Disc not present in AccurateRip database.
Содержание индексной карты (.CUE)
REM GENRE Jazz
REM DATE 1958
REM DISCID 7A102309
REM COMMENT "ExactAudioCopy v0.95b4"
PERFORMER "Miles Davis"
TITLE "Milestones"
FILE "01. Dr. Jackle.wav" WAVE TRACK 01 AUDIO TITLE "Dr. Jackle" PERFORMER "Miles Davis" INDEX 01 00:00:00 TRACK 02 AUDIO TITLE "Sid's Ahead" PERFORMER "Miles Davis" INDEX 00 05:46:25
FILE "02. Sid's Ahead.wav" WAVE INDEX 01 00:00:00 TRACK 03 AUDIO TITLE "Two Bass Hit" PERFORMER "Miles Davis" INDEX 00 12:59:30
FILE "03. Two Bass Hit.wav" WAVE INDEX 01 00:00:00 TRACK 04 AUDIO TITLE "Milestones" PERFORMER "Miles Davis" INDEX 00 05:10:72
FILE "04. Milestones.wav" WAVE INDEX 01 00:00:00 TRACK 05 AUDIO TITLE "Billy Boy" PERFORMER "Miles Davis" INDEX 00 05:42:28
FILE "05. Billy Boy.wav" WAVE INDEX 01 00:00:00 TRACK 06 AUDIO TITLE "Straight, No Chaser" PERFORMER "Miles Davis" INDEX 00 07:10:48
FILE "06. Straight, No Chaser.wav" WAVE INDEX 01 00:00:00 TRACK 07 AUDIO TITLE "Two Bass Hit (Alternate Take)" PERFORMER "Miles Davis" INDEX 00 10:35:28
FILE "07. Two Bass Hit (Alternate Take).wav" WAVE INDEX 01 00:00:00 TRACK 08 AUDIO TITLE "Milestones (Alternate Take)" PERFORMER "Miles Davis" INDEX 00 04:30:10
FILE "08. Milestones (Alternate Take).wav" WAVE INDEX 01 00:00:00 TRACK 09 AUDIO TITLE "Straight, No Chaser (Alternate Take)" PERFORMER "Miles Davis" INDEX 00 05:59:10
FILE "09. Straight, No Chaser (Alternate Take).wav" WAVE INDEX 01 00:00:00
Приватный:
Нет (DHT включён)
Размер:
489.35 Мб (513,124,951 байт) » файлов: 27
Участники:
0 раздают, 0 качают (0 участников всего)
Внешние участники:
3 раздают, 1 качают (4 участников всего) [ Обновить ]
22:35
207
RSS
Нет комментариев. Ваш будет первым!