Поиск

1958 (1994) Nat Adderley - Branching Out

1958 (1994) Nat Adderley - Branching Out
Страна-производитель диска (релиза):
USA
Дата записи диска:
сентябрь 1958
Дата издания диска:
декабрь 1958
Дата переиздания диска:
1994
Издатель (лейбл):
Номер по каталогу:
RLP 12-285 (OJCD-255-2)
Носитель:
CD
Битрейт аудио:
lossless
Аудиокодек:
FLAC (*.flac)
Тип рипа:
tracks+.cue
Время звучания:
39:55
Наличие сканов:
  • да
Релизёр (источник):
mironov_ad
Состав:
  • Nat Adderley (cornet)
  • Johnny Griffin (tenor sax)
  • Gene Harris (piano)
  • Andy Simpkins (bass)
  • Bill Dowdy (drums)
  • Jack Higgins Engineer
  • Orrin Keepnews Liner Notes, Producer
Альбом (первый для Nat Adderley на Riverside и первый, сделанный без участия его знаменитого брата) записан в сентябре 1958, оцифрован в 1993.

01. Sister Caroline (Adderley) 5:50
02. Well, You Needn't (Monk) 8:20
03. Don't Get Around Much Anymore (Ellington, Russell) 4:29
04. I Got Plenty O' Nuttin' (Gershwin, Gershwin, Heyward) 4:59
05. Branching Out (Mabern) 6:52
06. I Never Knew I Could Love Anybody (Like I'm Loving You) (Egan, Marsh, Pitts) 4:41
07. Warm Blue Stream (Cassey, Wayne) 4:23

Лог создания рипа
EAC extraction logfile from 23. June 2007, 13:24 for CD
Nat Adderley / Branching Out
Used drive : PLEXTOR CD-R PREMIUM2 Adapter: 1 ID: 1
Read mode : Secure with NO C2, accurate stream, disable cache
Read offset correction : 30
Overread into Lead-In and Lead-Out : No
Used output format : Internal WAV Routines
44.100 Hz; 16 Bit; Stereo
Other options :
Fill up missing offset samples with silence : Yes
Delete leading and trailing silent blocks : No
Installed external ASPI interface
Track 1
Filename C:\EAC\Nat Adderley - Branching Out (1958) [FLAC]\01 - Sister Caroline.wav
Pre-gap length 0:00:02.00
Peak level 99.4 %
Track quality 100.0 %
Test CRC 35EA506F
Copy CRC 35EA506F
Copy OK
Track 2
Filename C:\EAC\Nat Adderley - Branching Out (1958) [FLAC]\02 - Well, You Needn't.wav
Pre-gap length 0:00:03.66
Peak level 100.0 %
Track quality 100.0 %
Test CRC 66FF1FEC
Copy CRC 66FF1FEC
Copy OK
Track 3
Filename C:\EAC\Nat Adderley - Branching Out (1958) [FLAC]\03 - Don't Get Around Much Anymore.wav
Pre-gap length 0:00:02.96
Peak level 99.9 %
Track quality 100.0 %
Test CRC 2EDA2BF8
Copy CRC 2EDA2BF8
Copy OK
Track 4
Filename C:\EAC\Nat Adderley - Branching Out (1958) [FLAC]\04 - I've Got Plenty Of Nothin'.wav
Pre-gap length 0:00:03.22
Peak level 98.5 %
Track quality 100.0 %
Test CRC 3C451D78
Copy CRC 3C451D78
Copy OK
Track 5
Filename C:\EAC\Nat Adderley - Branching Out (1958) [FLAC]\05 - Branching Out.wav
Pre-gap length 0:00:03.40
Peak level 100.0 %
Track quality 100.0 %
Test CRC 83BFEAD0
Copy CRC 83BFEAD0
Copy OK
Track 6
Filename C:\EAC\Nat Adderley - Branching Out (1958) [FLAC]\06 - I Never Knew I Could Love Anybody.wav
Pre-gap length 0:00:03.40
Peak level 100.0 %
Track quality 100.0 %
Test CRC 3DCBFCF8
Copy CRC 3DCBFCF8
Copy OK
Track 7
Filename C:\EAC\Nat Adderley - Branching Out (1958) [FLAC]\07 - Warm Blue Stream.wav
Pre-gap length 0:00:03.50
Peak level 96.6 %
Track quality 100.0 %
Test CRC 86EA039C
Copy CRC 86EA039C
Copy OK
No errors occured
End of status report
Приватный:
Нет (DHT включён)
Размер:
191.34 Мб (200,631,628 байт) » файлов: 18
Участники:
0 раздают, 0 качают (0 участников всего)
Внешние участники:
5 раздают, 1 качают (6 участников всего) [ Обновить ]
19:59
131
RSS
Нет комментариев. Ваш будет первым!