Поиск

1958 (1986) Michel Legrand - Legrand Jazz

1958 (1986) Michel Legrand - Legrand Jazz
Дата записи диска:
25-30 июня 1958
Дата издания диска:
5 января 1959
Дата переиздания диска:
1986
Носитель:
CD
Битрейт аудио:
lossless
Аудиокодек:
APE (*.ape)
Тип рипа:
image+.cue
Время звучания:
44:41
Наличие сканов:
  • нет
Релизёр (источник):
Sidrr
Треклист:
 
01. The Jitterburg Waltz 5:16
02. Nuages 2:22
03. Night in Tunisia 5:51
04. Blue and Sentimental 3:21
05. Stompin' at the Savoy 3:46
06. Django 4:12
07. Wild Man Blues 3:21
08. Rosetta 7:15
09. 'round Midnight 2:57
10. Don't Get Around Much Anymore 2:32
11. In a Mist 3:17
 
 
 
Состав:
  • Eddie Bert Trombone
  • James Buffington French Horn
  • Billy Byers Trombone
  • Donald Byrd Trumpet
  • Paul Chambers Bass
  • Jimmy Cleveland Trombone
  • John Coltrane Sax (Tenor)
  • Eddie Costa Vibraphone
  • Miles Davis Trumpet
  • Kenny Dennis Drums
  • George Duvivier Bass
  • Don Elliott Vibraphone
  • Bill Evans Piano
  • Art Farmer Trumpet
  • Barry Galbraith Guitar
  • Betty Glamann Harp
  • Max Harrison Liner Notes
  • Milt Hinton Bass
  • Major Holley Bass, Tuba
  • Osie Johnson Drums
  • Hank Jones Piano
  • Don Lamond Drums
  • Michel Legrand Arranger, Conductor
  • Teo Macero Sax (Baritone)
  • Herbie Mann Flute
  • Nat Pierce Piano
  • Seldon Powell Sax (Tenor)
  • Gene Quill Sax (Alto)
  • Frank Rehak Trombone
  • Jerome Richardson Clarinet (Bass), Sax (Baritone)
  • Ernie Royal Trumpet
  • Ben Webster Sax (Tenor)
  • Joe Wilder Trumpet
  • Phil Woods Sax (Alto)
Лог создания рипа
Exact Audio Copy V0.99 prebeta 3 from 28. July 2007
Отчёт EAC об извлечении, выполненном 27. сентября 2007, 12:26
Michel Legrand / Legrand Jazz
Дисковод: _NEC DVD_RW ND-3550A Adapter: 1 ID: 0
Режим чтения : Достоверность
Использование точного потока : Да
Отключение кэша аудио : Да
Использование указателей C2 : Нет
Коррекция смещения при чтении : 48
Способность читать области Lead-in и Lead-out : Нет
Заполнение пропущенных сэмплов тишиной : Да
Удаление блоков с тишиной в начале и конце : Нет
При вычислениях CRC использовались нулевые сэмплы : Да
Интерфейс : Встроенный Win32-интерфейс для Win NT/2000
Выходной формат : Monkey's Audio Lossless Encoder v3.99 DLL
Формат сэмплов : High Lossless Compression
TOC извлечённого CD
Трек | Старт | Длительность | Начальный сектор | Конечный сектор
---------------------------------------------------------------------
1 | 0:00.33 | 5:19.40 | 33 | 23997
2 | 5:19.73 | 2:23.72 | 23998 | 34794
3 | 7:43.70 | 5:53.73 | 34795 | 61342
4 | 13:37.68 | 3:25.25 | 61343 | 76742
5 | 17:03.18 | 3:48.25 | 76743 | 93867
6 | 20:51.43 | 4:15.10 | 93868 | 113002
7 | 25:06.53 | 3:24.60 | 113003 | 128362
8 | 28:31.38 | 7:19.62 | 128363 | 161349
9 | 35:51.25 | 2:59.70 | 161350 | 174844
10 | 38:51.20 | 2:36.23 | 174845 | 186567
11 | 41:27.43 | 3:17.65 | 186568 | 201407
Характеристики диапазона извлечения и сообщения об ошибках
Выбранный диапазон
Имя файла D:\Torrent\M Legrand\Michel Legrand - Legrand Jazz.ape
Пиковый уровень 90.5 %
Качество диапазона 100.0 %
CRC копии 7CB64392
Копирование... OK
Ошибок не произошло
Конец отчёта
Приватный:
Нет (DHT включён)
Размер:
252.99 Мб (265,277,628 байт) » файлов: 3
Участники:
0 раздают, 0 качают (0 участников всего)
Внешние участники:
1 раздают, 0 качают (1 участников всего) [ Обновить ]
12:41
89
RSS
Нет комментариев. Ваш будет первым!