Вы используете незарегистрированную версию компонента "Вкладки"!

Поиск

1958-1959 Benny Goodman Tentette - The Swing Band Project, Vol.4 - The Bremen'59 Concert and Brussels'58 (2020) {Jube Legends} [24-48]

1958-1959 Benny Goodman Tentette - The Swing Band Project, Vol.4 - The Bremen'59 Concert and Brussels'58 (2020) {Jube Legends} [24-48]
Стили:
Битрейт аудио:
lossless
Доп. инфо:

Формат записи/Источник записи: [TR24][OF]
Издание: Remastered
Год издания/переиздания диска: 2020
Издатель (лейбл): Jube Legends
Продолжительность: 01:31:07
Наличие сканов в содержимом раздачи: Нет

Контейнер: FLAC (*.flac)
Тип рипа: tracks
Разрядность: 24/48
Количество каналов: 2.0

Источник (релизер): Qobuz

Лог проверки качества
foobar2000 1.4.3 / Dynamic Range Meter 1.1.1
log date: 2020-07-03 16:34:57

--------------------------------------------------------------------------------
Analyzed: Benny Goodman Bigband / The Swing Band Project, Vol.4: Benny Goodman - The Bremen 1959 Concert and Brussels 1958 (2020 Remaster) (1-10)
          Benny Goodman Septette / The Swing Band Project, Vol.4: Benny Goodman - The Bremen 1959 Concert and Brussels 1958 (2020 Remaster) (11)
          Benny Goodman Sextette / The Swing Band Project, Vol.4: Benny Goodman - The Bremen 1959 Concert and Brussels 1958 (2020 Remaster) (12-13)
          Benny Goodman Tentette / The Swing Band Project, Vol.4: Benny Goodman - The Bremen 1959 Concert and Brussels 1958 (2020 Remaster) (14-20)
--------------------------------------------------------------------------------

DR         Peak         RMS     Duration Track
--------------------------------------------------------------------------------
DR11       0.00 dB   -13.83 dB      0:51 11-Concert in Brussles, Marc 1958: Signal Tune: Let's Dance (Live)
DR12       0.00 dB   -14.44 dB      2:44 12-Concert in Brussles, Marc 1958: Bugle Call Rag (Live)
DR13       0.00 dB   -15.54 dB      3:18 13-Concert in Brussles, Marc 1958: Don't be That way (Live)
DR12       0.00 dB   -15.18 dB      3:21 14-Concert in Brussles, Marc 1958: Sing! Sing! Sing! (Part 1) - Introducing Christopher Columbus [Live]
DR12       0.00 dB   -15.42 dB     12:20 15-Concert in Brussles, Marc 1958: Sing! Sing! Sing! (Part 2) [Live]
DR13       0.00 dB   -15.95 dB      3:29 16-Concert in Brussles, Marc 1958: King Porter Stomp (Live)
DR12       0.00 dB   -15.00 dB      3:50 17-Concert in Brussles, Marc 1958: St. Louis Blues (Live)
DR13       0.00 dB   -15.91 dB      5:17 18-Concert in Brussles, Marc 1958: Stealin'apples (Live)
DR13       0.00 dB   -17.69 dB      6:00 19-Concert in Brussles, Marc 1958: One 'O Clock Jump (Live)
DR12       0.00 dB   -14.77 dB      2:53 20-Concert in Brussles, Marc 1958: Goodbye to Brussels (Live)
DR12       0.00 dB   -15.20 dB      3:57 05-Concert in Bremen, October 1959: Slipped Disc (Live)
DR12       0.00 dB   -14.81 dB      3:50 03-Concert in Bremen, October 1959: Rachel's Dream (Live)
DR14       0.00 dB   -17.14 dB      4:05 04-Concert in Bremen, October 1959: Memories of you (Live)
DR14       0.00 dB   -15.76 dB      0:44 01-Concert in Bremen, October 1959: Signal Tune: Let's Dance (Live)
DR14       0.00 dB   -16.84 dB      4:54 02-Concert in Bremen, October 1959: Air Mail Special (Live)
DR14       0.00 dB   -16.59 dB      4:48 06-Concert in Bremen, October 1959: Happy (Live)
DR14       0.00 dB   -18.79 dB     13:49 07-Concert in Bremen, October 1959: Swing Standards Medley includig "Sing! Sing! Sing!" (Live)
DR14       0.00 dB   -16.81 dB      5:34 08-Concert in Bremen, October 1959: I want to be happy (Live)
DR13       0.00 dB   -18.26 dB      4:45 09-Concert in Bremen, October 1959: When your're smiling (Live)
DR14       0.00 dB   -18.62 dB      0:50 10-Concert in Bremen, October 1959: Farewell to Bremen (Live)
--------------------------------------------------------------------------------

Number of tracks:  20
Official DR value: DR13

Samplerate:        48000 Hz
Channels:          2
Bits per sample:   24
Bitrate:           1505 kbps
Codec:             FLAC
================================================================================
Any questions - support@pro-jazz.com. Есть вопросы - support@pro-jazz.com
10:37
281
Нет комментариев. Ваш будет первым!