Вы используете незарегистрированную версию компонента "Вкладки"!

Поиск

1957 Red Garland Trio - Groovy (2014) {Prestige} [24-44,1]

1957 Red Garland Trio - Groovy (2014) {Prestige} [24-44,1]
Дата записи диска:
14 декабря 1956; 24 мая 1957; 9 августа 1957
Место записи:
Van Gelder Recording Studio, Englewood Cliffs, New Jersey
Издатель (лейбл):
Битрейт аудио:
lossless
Доп. инфо:

Формат записи/Источник записи: [TR24][OF]
Издание: Remastered
Год издания/переиздания диска: 1957/2014
Продолжительность: 00:40:19
Наличие сканов в содержимом раздачи: Нет

Контейнер: FLAC (*.flac)
Тип рипа: tracks
Разрядность: 24/44,1
Количество каналов: 2.0

Источник (релизер): Qobuz

Лог проверки качества
foobar2000 1.4.3 / Dynamic Range Meter 1.1.1
log date: 2020-05-13 17:54:24

--------------------------------------------------------------------------------
Analyzed: Red Garland Trio / Groovy
--------------------------------------------------------------------------------

DR         Peak         RMS     Duration Track
--------------------------------------------------------------------------------
DR11      -0.08 dB   -12.63 dB      8:22 01-C-Jam Blues (RVG Remaster)
DR11      -0.23 dB   -13.36 dB      6:47 02-Gone Again (RVG Remaster)
DR11      -0.17 dB   -12.72 dB      4:44 03-Will You Still Be Mine (RVG Remaster)
DR11      -0.44 dB   -13.84 dB      9:36 04-Willow Weep For Me (RVG Remaster)
DR12      -0.21 dB   -14.15 dB      7:15 05-What Can I Say After I Say I'm Sorry (RVG Remaster)
DR11      -0.15 dB   -12.68 dB      3:40 06-Hey Now (RVG Remaster)
--------------------------------------------------------------------------------

Number of tracks:  6
Official DR value: DR11

Samplerate:        44100 Hz
Channels:          2
Bits per sample:   24
Bitrate:           1643 kbps
Codec:             FLAC
================================================================================
Any questions - support@pro-jazz.com. Есть вопросы - support@pro-jazz.com
14:50
245
Нет комментариев. Ваш будет первым!