Поиск

1957 Clifford Jordan - Hope and Fear (2019) {Nagel Heyer} [24-44,1]

1957 Clifford Jordan - Hope and Fear (2019) {Nagel Heyer} [24-44,1]
Стили:
Дата издания диска:
7 октября 2019
Издатель (лейбл):
Битрейт аудио:
lossless
Доп. инфо:

Формат записи/Источник записи: [TR24][OF]
Издание: Remastered
Год издания/переиздания диска: 2019
Продолжительность: 01:48:33
Наличие сканов в содержимом раздачи: Нет

Контейнер: FLAC (*.flac)
Тип рипа: tracks
Разрядность: 24/44,1
Количество каналов: 2.0

Лог проверки качества
foobar2000 1.4.3 / Dynamic Range Meter 1.1.1
log date: 2020-09-19 18:10:06

--------------------------------------------------------------------------------
Analyzed: Clifford Jordan / Hope and Fear
--------------------------------------------------------------------------------

DR         Peak         RMS     Duration Track
--------------------------------------------------------------------------------
DR10      -1.00 dB   -13.63 dB      6:47 01-Sophisticated Lady
DR10      -1.00 dB   -12.21 dB      7:05 02-Laconia
DR9       -1.00 dB   -12.27 dB      6:04 03-With Malice Towards None
DR10      -1.00 dB   -11.93 dB      8:17 04-St. John
DR11      -1.00 dB   -13.59 dB      5:35 05-Out-House
DR10      -1.00 dB   -11.98 dB      6:59 06-Beyond the Blue Horizon
DR10      -1.00 dB   -12.96 dB      5:33 07-Dear Old Chicago
DR9       -1.00 dB   -11.32 dB      9:39 08-Blue Shoes
DR10      -1.00 dB   -12.69 dB      5:04 09-How Deep Is the Ocean, How High Is the Sky
DR10      -1.00 dB   -12.13 dB      3:57 10-Ju-Ba
DR10      -1.00 dB   -12.67 dB      6:04 11-You Better Leave It Alone
DR10      -1.00 dB   -12.20 dB     11:45 12-Not Guilty
DR8       -1.00 dB   -10.00 dB      5:37 13-Status Quo
DR10      -1.00 dB   -12.99 dB      8:32 14-Soul-Lo Blues
DR9       -1.00 dB   -12.08 dB      5:02 15-Bearcat
DR9       -1.00 dB   -11.32 dB      6:39 16-Blue Lights
--------------------------------------------------------------------------------

Number of tracks:  16
Official DR value: DR10

Samplerate:        44100 Hz
Channels:          2
Bits per sample:   24
Bitrate:           1499 kbps
Codec:             FLAC
================================================================================
No seeders - write personal message to M0p94ok. Any questions - support@pro-jazz.com.
Нет сидеров - пишите в личку M0p94ok. Есть вопросы - support@pro-jazz.com
23:01
287
Нет комментариев. Ваш будет первым!